Последний герой (Виктор Татарский) [2012, Россия, драма, детектив, DVD5]

 
Автор Сообщение

TorrentFilm ®

Пол:

Стаж: 2 года

Сообщений: 7741



Награды: Нет

Торрент-статистика

Создавать темы 02-Янв-2016 00:01

[Цитировать]

Последний герой- Страна: Россия
Студия: Триикс Медиа / Телекомпания НТВ
Жанр: драма, детектив
Год выпуска: 2012
Продолжительность: 01:28:50-Перевод: Не требуется
Cубтитры: нет-Режиссер: Виктор Татарский
В ролях: Михаил Полосухин, Людмила Курепова, Игорь Качаев, Петр Семак, Денис Синявский, Геннадий Смирнов, Маргарита Бычкова, Елена Мартыненко, Евгений Сиротин, Ольга Кожевникова.-Описание: Горячая точка, где-то за пределами России. Во время боя один из миротворцев — Андрей — спасает жизнь другому миротворцу — Виктору.
Прошло порядка 20 лет. Андрей стал врачом, живет в Питере. Однажды Андрея избивают и он попадает в больницу. Его жена Катя написала заявление в милицию. Но та явно не торопится искать преступников. Андрей умирает, а Кате, которая пытается добиться справедливости, начинают угрожать. Обещают убить ее и сына. Неожиданно на пороге ее дома появляется Виктор, тот самый солдат, которого спас Андрей…- -Бонусы: отсутствуют
Меню: на русском языке, статичное, озвученное-Тип релиза: DVD5
Контейнер: DVD-Video
Видео: PAL 16:9 ;(720x576@1024x576); VBR ;Auto Letterboxed; 25,000 fps; 4990 kbps
Аудио 1: Russian (AC3, 2 ch, 192 kbps)
Аудио 2: Russian (AC3, 6 ch, 448 kbps)

MediaInfo

Общее
Полное имя : F:Poslednij.geroj.2012.O.DVD5\VIDEO_TS\VTS_01_2.VOB
Формат : MPEG-PS
Размер файла : 1024 Мбайт
Продолжительность : 24 м.
Общий поток : 5744 Кбит/сек
Видео
Идентификатор : 224 (0xE0)
Формат : MPEG Video
Версия формата : Version 2
Профиль формата : Main@Main
Параметр BVOP формата : Да
Параметр матрицы формата : По умолчанию
Продолжительность : 24 м.
Вид битрейта : Переменный
Битрейт : 4990 Кбит/сек
Номинальный битрейт : 8100 Кбит/сек
Ширина : 720 пикс.
Высота : 576 пикс.
Соотношение сторон : 16:9
Частота кадров : 25,000 кадр/сек
Стандарт вещания : PAL
Цветовое пространство : YUV
Подвыборка цветности : 4:2:0
Битовая глубина : 8 бит
Тип развёртки : Прогрессивная
Метод сжатия : С потерями
Бит/(Пиксели*Кадры) : 0.481
Размер потока : 889 Мбайт (87%)
Аудио #1
Идентификатор : 189 (0xBD)-128 (0x80)
Формат : AC-3
Формат/Информация : Audio Coding 3
Расширение режима : CM (complete main)
Режим смешивания : DVD-Video
Продолжительность : 24 м.
Вид битрейта : Постоянный
Битрейт : 192 Кбит/сек
Каналы : 2 канала
Расположение каналов : Front: L R
Частота : 48,0 КГц
Битовая глубина : 16 бит
Метод сжатия : С потерями
Задержка видео : -808 мс.
Размер потока : 34,2 Мбайт (3%)
Аудио #2
Идентификатор : 189 (0xBD)-129 (0x81)
Формат : AC-3
Формат/Информация : Audio Coding 3
Расширение режима : CM (complete main)
Режим смешивания : DVD-Video
Продолжительность : 24 м.
Вид битрейта : Постоянный
Битрейт : 448 Кбит/сек
Каналы : 6 каналов
Расположение каналов : Front: L C R, Side: L R, LFE
Частота : 48,0 КГц
Битовая глубина : 16 бит
Метод сжатия : С потерями
Задержка видео : -872 мс.
Размер потока : 79,9 Мбайт (8%)
Меню

DVDInfo

Title: Poslednij.geroj.2012.O.DVD5
Size: 3.59 Gb ( 3 759 824,00 KBytes ) - DVD-5
Enabled regions: 1, 2, 3, 4, 5, 6, 7, 8
VTS_01 :
Play Length: 01:28:50
Video: PAL 16:9 (720x576) VBR, Auto Letterboxed
Audio:
English (Dolby AC3, 2 ch)
English (Dolby AC3, 6 ch)
* Menus Information *
VIDEO_TS Menu
Video:
PAL 16:9 (720x576) VBR
Auto Letterboxed
English Language Unit :
Title Menu
VTS_01 Menu
Video:
PAL 16:9 (720x576) VBR
Auto Letterboxed
Audio:
Not specified (Dolby AC3, 2 ch)
English Language Unit :
Root Menu

Скриншоты меню

Скриншоты

[Профиль] [ЛС]
Показать сообщения:    

Текущее время: Сегодня 10:46

Часовой пояс: GMT



Вы не можете начинать темы
Вы не можете отвечать на сообщения
Вы не можете редактировать свои сообщения
Вы не можете удалять свои сообщения
Вы не можете голосовать в опросах
Вы не можете прикреплять файлы к сообщениям
Вы не можете скачивать файлы