Последний бриллиант / Le dernier diamant (Эрик Барбье / Eric Barbier) [2014, Франция, Люксембург, Бельгия, драма, криминал, HDRip] MVO

 
Автор Сообщение

TorrentFilm ®

Пол:

Стаж: 2 года 7 месяцев

Сообщений: 7764



Награды: Нет

Торрент-статистика

Создавать темы 29-Дек-2014 00:16

[Цитировать]

Последний бриллиант / Le dernier diamant
Страна: Франция, Люксембург, Бельгия
Жанр: драма, криминал
Год выпуска: 2014
Продолжительность:01:48:37
Перевод: Профессиональный (многоголосый закадровый) [лицензия]
Оригинальная аудиодорожка: нет
Cубтитры: нет
Режиссер: Эрик Барбье / Eric Barbier
В ролях:Иван Атталь, Беренис Бежо, Жан-Франсуа Стевенен, Антуан Баслер, Жак Списсер, Анни Корди, Мишель Израэль, Шарли Дюпон, Дэниэль Дени, Гене Бервутс
Описание: Бывший заключенный, втирается в доверие к дочери покойного эксперта-ювелира с целью выкрасть «Флорентийца», один из крупнейших в мире бриллиантов. Добившись своего и заменив драгоценность фальшивкой, мошенник передает бриллиант подельникам, которые тотчас же пытаются его убить. Потеряв в одночасье бриллиант и друзей-предателей, герой пытается удержать самое дорогое, что осталось в его жизни — полюбившую его девушку.
Сэмпл
Качество: HDRip
Контейнер: AVI
Видео: 720x304 (2.37:1), 24.000 fps, XviD build 50 ~1721 kbps avg, 0.33 bit/pixel
Аудио: 48 kHz, AC3 Dolby Digital, 2/0 (L,R) ch, ~192 kbps

MI

Общее
Полное имя : C:\Users\Пользователь\Downloads\Poslednij.brilliant.2014.P.HDRip.avi
Формат : AVI
Формат/Информация : Audio Video Interleave
Размер файла : 1,46 Гбайт
Продолжительность : 1 ч. 48 м.
Общий поток : 1923 Кбит/сек
Программа кодирования : VirtualDubMod 1.5.10.2 (build 2540/release)
Библиотека кодирования : VirtualDubMod build 2540/release
Видео
Идентификатор : 0
Формат : MPEG-4 Visual
Профиль формата : Advanced Simple@L5
Параметр BVOP формата : 2
Параметр QPel формата : Нет
Параметр GMC формата : Без точки перехода
Параметр матрицы формата : Default (MPEG)
Идентификатор кодека : XVID
Идентификатор кодека/Подсказка : XviD
Продолжительность : 1 ч. 48 м.
Битрейт : 1721 Кбит/сек
Ширина : 720 пикселей
Высота : 304 пикселя
Соотношение сторон : 2,35:1
Частота кадров : 24,000 кадра/сек
Цветовое пространство : YUV
Субдискретизация насыщенности : 4:2:0
Битовая глубина : 8 бит
Тип развёртки : Прогрессивная
Метод сжатия : С потерями
Бит/(Пиксели*Кадры) : 0.328
Размер потока : 1,31 Гбайт (90%)
Библиотека кодирования : XviD 1.2.1 (UTC 2008-12-04)
Аудио
Идентификатор : 1
Формат : AC-3
Формат/Информация : Audio Coding 3
Расширение режима : CM (complete main)
Параметр Endianness формата : Big
Идентификатор кодека : 2000
Продолжительность : 1 ч. 48 м.
Вид битрейта : Постоянный
Битрейт : 192 Кбит/сек
Каналы : 2 канала
Расположение каналов : Front: L R
Частота : 48,0 КГц
Битовая глубина : 16 бит
Метод сжатия : С потерями
Размер потока : 149 Мбайт (10%)
Выравнивание : Разделение по промежуткам
Продолжительность промежутка : 42 мс. (1,00 видеокадр)
Время предзагрузки промежутка : 500 мс.

Скриншоты

[Профиль] [ЛС]
Кто просматривает тему:

Форум Тема Автор Размер
Pop (Pop) Анастасия Стоцкая - Последний Шаг - 2015, MP3, 320 kbps достали все 103 MB
Rock (Rock)Кино (Виктор Цой) - Последние записи - 1990 (опубликовано 2002), FLAC (image+.cue), lossless sergej644 466 MB
Rock (Рок) Белый проект - Последний день на Земле - 2015, MP3, 320 kbps достали все 54 MB
Фильмы 2016 года 1898. Последние на Филиппинах / 1898. Los últimos de Filipinas (2016) HDRip | L BOSS 2.05 GB
BBC BBC: Последние царственные воины Европы (1066: Год, чтобы покорить Англию) / Europe's Last Warrior Kings (1066: A Year to Conquer England) [серии 1-3 из 3](Tim Dunn, Robin Dashwood) [2016 ... skorpionN 10.25 GB
Культура и искусство BBC: Саймон Шама о Рембрандте. Шедевры последних лет / Schama on Rembrandt: Masterpieces of the Late Years (Франк Ханли / Frank Hanly) [2014 г., Документальный, искусство, биография, HDTVRip-AVC... skorpionN 1.75 GB
BBC BBC: Скрытые убийцы в домах послевоенного времени / Hidden Killers of The Post War Home (Suzanne Phillips) [2015 г., Документальный, история, HDTVRip 720p] skorpionN 1.8 GB
BBC BBC: Экспедиция "Тигр" (В поисках последнего тигра) / Lost Land of the Tiger [серии 1-3 из 3] (Annie Backhouse, Susanna Handslip, Rowan Musgrave) [2010 г., Документальный, природа, флор... skorpionN 4.76 GB
Показать сообщения:    

Текущее время: Сегодня 12:55

Часовой пояс: GMT



Вы не можете начинать темы
Вы не можете отвечать на сообщения
Вы не можете редактировать свои сообщения
Вы не можете удалять свои сообщения
Вы не можете голосовать в опросах
Вы не можете прикреплять файлы к сообщениям
Вы не можете скачивать файлы