Последний Бой Николая Кузнецова (Игорь Холодков) [2015, Документальный, HDTV 720p]

 
Автор Сообщение

TorrentFilm ®

Пол:

Стаж: 1 год 11 месяцев

Сообщений: 7741



Награды: Нет

Торрент-статистика

Создавать темы 24-Апр-2015 00:03

[Цитировать]

Последний Бой Николая Кузнецова- Год выпуска: 2015
Страна: Россия
Канал: Россия HD | Студия "Талан"
Жанр: Документальный
Продолжительность: 0:45:44
Автор сценария: Леонид Маляров
Режиссер: Игорь Холодков-Описание: 12 февраля 1944 года в 18 километрах от Львова, возле шлагбаума у села Куровицы, пост немецкой полевой жандармерии остановил для проверки серый "Пежо". Сидевший в автомобиле человек в форме гауптмана вермахта в ответ на требование предъявить документы выхватил пистолет и двумя выстрелами убил начальника поста. Другой пассажир открыл огонь из автомата. Шофер надавил на газ, "Пежо" рванул с места и скрылся из вида...-Автор рипа: lrn
Автор записи: Alexin29
Сэмпл: sendfile-Тип релиза: HDTV 720p
Контейнер: MKV
Видео: 1280x720 (16:9), 25,000 fps, H264, ~4000 kbps avg, ~0.174 bit/pixel
Аудио: 48 kHz, AC3 Dolby Digital, 2/0 (L,R) ch, ~192.00 kbps avg-

MediaInfo

GeneralUnique ID : 192416953458149278335362973236454409729 (0x90C228415B9B5639ADB2F0C21872C601)Complete name : E:\uTorrent.Temp\Temp\Posledniy.Boy.Nikolaya.Kuznetsova.2015.HDTV.720p.x264-lrn.mkvFormat : MatroskaFormat version : Version 4 / Version 2File size : 1.34 GiBDuration : 45mn 44sOverall bit rate : 4 194 KbpsMovie name : Posledniy.Boy.Nikolaya.Kuznetsova.2015.HDTV.720p.x264-lrnEncoded date : UTC 2010-02-22 21:41:31Writing application : mkvmerge v5.9.0 ('On The Loose') built on Dec 9 2012 15:37:01Writing library : libebml v1.3.0 + libmatroska v1.4.0
VideoID : 1Format : AVCFormat/Info : Advanced Video CodecFormat profile : High@L4.1Format settings, CABAC : YesFormat settings, ReFrames : 8 framesCodec ID : V_MPEG4/ISO/AVCDuration : 45mn 44sBit rate : 4 000 KbpsWidth : 1 280 pixelsHeight : 720 pixelsDisplay aspect ratio : 16:9Frame rate mode : ConstantFrame rate : 25.000 fpsColor space : YUVChroma subsampling : 4:2:0Bit depth : 8 bitsScan type : ProgressiveBits/(Pixel*Frame) : 0.174Stream size : 1.25 GiB (93%)Writing library : x264 core 142 r2479 dd79a61Encoding settings : cabac=1 / ref=8 / deblock=1:-3:-3 / analyse=0x3:0x113 / me=umh / subme=9 / psy=1 / psy_rd=1.00:0.00 / mixed_ref=1 / me_range=32 / chroma_me=1 / trellis=2 / 8x8dct=1 / cqm=0 / deadzone=21,11 / fast_pskip=1 / chroma_qp_offset=-4 / threads=12 / lookahead_threads=2 / sliced_threads=0 / nr=0 / decimate=1 / interlaced=0 / bluray_compat=0 / constrained_intra=0 / bframes=8 / b_pyramid=2 / b_adapt=2 / b_bias=0 / direct=1 / weightb=1 / open_gop=0 / weightp=2 / keyint=250 / keyint_min=25 / scenecut=40 / intra_refresh=0 / rc_lookahead=50 / rc=2pass / mbtree=1 / bitrate=4000 / ratetol=1.0 / qcomp=0.60 / qpmin=0 / qpmax=69 / qpstep=4 / cplxblur=20.0 / qblur=0.5 / vbv_maxrate=62500 / vbv_bufsize=78125 / nal_hrd=none / filler=0 / ip_ratio=1.40 / aq=1:1.00Default : YesForced : NoColor primaries : BT.709Transfer characteristics : BT.709Matrix coefficients : BT.709Color range : Limited
AudioID : 2Format : AC-3Format/Info : Audio Coding 3Mode extension : CM (complete main)Format settings, Endianness : BigCodec ID : A_AC3Duration : 45mn 44sBit rate mode : ConstantBit rate : 192 KbpsChannel(s) : 2 channelsChannel positions : Front: L RSampling rate : 48.0 KHzBit depth : 16 bitsCompression mode : LossyDelay relative to video : 63msStream size : 62.8 MiB (5%)Language : RussianDefault : YesForced : No

x264 log

x264 [info]: using SAR=4311/4304x264 [info]: using cpu capabilities: MMX2 SSE2Fast SSSE3 SSE4.2 AVXx264 [info]: profile High, level 4.1x264 [info]: frame I:576 Avg QP:14.82 size:103504x264 [info]: frame P:18220 Avg QP:17.86 size: 37101x264 [info]: frame B:49816 Avg QP:19.99 size: 12779x264 [info]: consecutive B-frames: 3.9% 4.9% 8.0% 51.3% 13.1% 13.4% 3.1% 2.1% 0.2%x264 [info]: mb I I16..4: 5.7% 79.4% 14.9%x264 [info]: mb P I16..4: 3.6% 20.4% 1.7% P16..4: 37.4% 20.1% 9.3% 0.0% 0.0% skip: 7.4%x264 [info]: mb B I16..4: 0.6% 3.0% 0.3% B16..8: 35.1% 10.8% 2.2% direct:10.1% skip:38.0% L0:43.4% L1:44.2% BI:12.4%x264 [info]: 8x8 transform intra:78.6% inter:67.4%x264 [info]: coded y,uvDC,uvAC intra: 72.8% 61.6% 33.4% inter: 26.7% 27.7% 2.8%x264 [info]: i16 v,h,dc,p: 27% 16% 6% 51%x264 [info]: i8 v,h,dc,ddl,ddr,vr,hd,vl,hu: 16% 12% 8% 7% 10% 12% 11% 11% 13%x264 [info]: i4 v,h,dc,ddl,ddr,vr,hd,vl,hu: 15% 11% 5% 8% 13% 14% 13% 10% 11%x264 [info]: i8c dc,h,v,p: 49% 22% 19% 10%x264 [info]: Weighted P-Frames: Y:6.1% UV:2.0%x264 [info]: ref P L0: 54.0% 11.7% 15.7% 5.6% 4.3% 3.4% 3.0% 2.1% 0.3% 0.0%x264 [info]: ref B L0: 77.9% 10.7% 5.0% 2.5% 2.0% 1.2% 0.6%x264 [info]: ref B L1: 93.9% 6.1%x264 [info]: kb/s:3999.94

Скриншоты

-
[Профиль] [ЛС]
Показать сообщения:    

Текущее время: Сегодня 11:55

Часовой пояс: GMT



Вы не можете начинать темы
Вы не можете отвечать на сообщения
Вы не можете редактировать свои сообщения
Вы не можете удалять свои сообщения
Вы не можете голосовать в опросах
Вы не можете прикреплять файлы к сообщениям
Вы не можете скачивать файлы