Последние девушки / The Final Girls (2015) BDRip-AVC | Лицензия

 
Автор Сообщение

достали все ®

Пол:

Стаж: 1 год 8 месяцев

Сообщений: 6565



Награды: 12 (Подробнее)

Top Releaser 3 (Количество: 1) Mega Releaser 2 (Количество: 1) Mega Releaser 1 (Количество: 1)
Торрент-статистика

Создавать темы 11-Ноя-2015 04:12

[Цитировать]

Последние девушки
The Final Girls
Страна: США
Жанр: ужасы, комедия
Год выпуска: 2015
Продолжительность: 01:31:20
Перевод: Профессиональный (многоголосый, закадровый) [Лицензия BD CEE]
Субтитры: русские, английские
Оригинальная аудиодорожка: Английский
Режиссер: Тодд Штраус-Шульсон / Todd Strauss-Schulson
В ролях: Таисса Фармига, Малин Акерман, Александр Людвиг, Нина Добрев, Алиа Шокат, Томас Миддлдитч, Адам Дивайн, Анджела Тримбур, Хлоя Бриджес, Тори Томпсон, Реджинальд Робинсон, Лорен Грос
Описание:
В центре событий - девушка, тяжело переживающая смерть матери, которая в 80-е была звездой слэшеров. В годовщину её смерти по странному стечению обстоятельств Макс с друзьями оказывается в одном из этих фильмов. Теперь они вместе должны противостоять преследующему их маньяку.

Релиз:
Автор рипа: Stalker oK
Сэмпл
Качество видео: BDRip-AVC [Blu-ray 1080p]
Формат видео: MKV
Видео кодек: AVC
Аудио кодек: AC3
Видео: 2524 Кбит/сек, 1132*474 (2,35:1), в 23,976 кадр/сек, AVC
Аудио #1: Russian, 448 Кбит/сек, 48,0 КГц, 16 бит, 6 канала(ов), AC-3
Аудио #2: English, 448 Кбит/сек, 48,0 КГц, 16 бит, 6 канала(ов), AC-3
Навигация по главам: есть

MediaInfo

Общее
Уникальный идентификатор : 241492921201883904218751935031198796626 (0xB5ADD846C7D25F458971CD20B7EECB52)
Полное имя : M:RipsThe Final GirlsThe.Final.Girls.2015.BDRip-AVC.MVO.2.18Gb...stalkerok.new-team.mkv
Формат : Matroska
Размер файла : 2,18 Гбайт
Продолжительность : 1 ч. 31 м.
Общий поток : 3422 Кбит/сек
Название фильма : The Final Girls (2015) (New-Team) (Rip by Stalker oK)
Дата кодирования : UTC 2015-11-10 17:01:35
Программа кодирования : mkvmerge v7.9.0 ('Birds') 64bit
Библиотека кодирования : libebml v1.3.1 + libmatroska v1.4.2
Видео
Идентификатор : 1
Формат : AVC
Формат/Информация : Advanced Video Codec
Профиль формата : High@L4.1
Параметр CABAC формата : Да
Параметр ReFrames формата : 12 кадры
Идентификатор кодека : V_MPEG4/ISO/AVC
Продолжительность : 1 ч. 31 м.
Битрейт : 2524 Кбит/сек
Ширина : 1132 пикс.
Высота : 474 пикс.
Соотношение сторон : 2,35:1
Частота кадров : 23,976 кадр/сек
Цветовое пространство : YUV
Подвыборка цветности : 4:2:0
Битовая глубина : 8 бит
Тип развёртки : Прогрессивная
Бит/(Пиксели*Кадры) : 0.196
Размер потока : 1,57 Гбайт (72%)
Заголовок : The Final Girls (2015) (New-Team) (Rip by Stalker oK)
Библиотека кодирования : x264 core 146 r2538kMod 121396c
Настройки программы : cabac=1 / ref=12 / deblock=1:-3:-3 / analyse=0x3:0x133 / me=umh / subme=11 / psy=1 / fade_compensate=0.00 / psy_rd=1.00:0.15 / mixed_ref=1 / me_range=48 / chroma_me=1 / trellis=2 / 8x8dct=1 / cqm=0 / deadzone=21,11 / fast_pskip=0 / chroma_qp_offset=-3 / threads=12 / lookahead_threads=3 / sliced_threads=0 / nr=0 / decimate=0 / interlaced=0 / bluray_compat=0 / constrained_intra=0 / fgo=0 / bframes=13 / b_pyramid=2 / b_adapt=2 / b_bias=0 / direct=3 / weightb=1 / open_gop=0 / weightp=2 / keyint=240 / keyint_min=23 / scenecut=40 / intra_refresh=0 / rc_lookahead=60 / rc=2pass / mbtree=0 / bitrate=2524 / ratetol=1.0 / qcomp=0.70 / qpmin=0 / qpmax=69 / qpstep=4 / cplxblur=20.0 / qblur=0.5 / vbv_maxrate=50000 / vbv_bufsize=62500 / nal_hrd=none / filler=0 / ip_ratio=1.40 / pb_ratio=1.30 / aq=3:0.83
Аудио #1
Идентификатор : 2
Формат : AC-3
Формат/Информация : Audio Coding 3
Расширение режима : CM (complete main)
Идентификатор кодека : A_AC3
Продолжительность : 1 ч. 31 м.
Вид битрейта : Постоянный
Битрейт : 448 Кбит/сек
Канал(ы) : 6 канала(ов)
Расположение каналов : Front: L C R, Side: L R, LFE
Частота : 48,0 КГц
Битовая глубина : 16 бит
Метод сжатия : С потерями
Размер потока : 293 Мбайт (13%)
Язык : Russian
Аудио #2
Идентификатор : 3
Формат : AC-3
Формат/Информация : Audio Coding 3
Расширение режима : CM (complete main)
Идентификатор кодека : A_AC3
Продолжительность : 1 ч. 31 м.
Вид битрейта : Постоянный
Битрейт : 448 Кбит/сек
Канал(ы) : 6 канала(ов)
Расположение каналов : Front: L C R, Side: L R, LFE
Частота : 48,0 КГц
Битовая глубина : 16 бит
Метод сжатия : С потерями
Размер потока : 293 Мбайт (13%)
Язык : English
Текст #1
Идентификатор : 4
Формат : UTF-8
Идентификатор кодека : S_TEXT/UTF8
Идентификатор кодека/Информация : UTF-8 Plain Text
Язык : Russian
Текст #2
Идентификатор : 5
Формат : UTF-8
Идентификатор кодека : S_TEXT/UTF8
Идентификатор кодека/Информация : UTF-8 Plain Text
Заголовок : SDH
Язык : English
Меню
00:00:00.000 : en:Chapter 1
00:05:51.392 : en:Chapter 2
00:09:36.325 : en:Chapter 3
00:17:25.627 : en:Chapter 4
00:22:15.083 : en:Chapter 5
00:27:19.346 : en:Chapter 6
00:32:36.204 : en:Chapter 7
00:37:59.193 : en:Chapter 8
00:44:01.305 : en:Chapter 9
00:48:59.895 : en:Chapter 10
00:54:48.159 : en:Chapter 11
00:59:00.203 : en:Chapter 12
01:04:52.138 : en:Chapter 13
01:08:12.088 : en:Chapter 14
01:14:23.667 : en:Chapter 15
01:19:57.292 : en:Chapter 16
[Профиль] [ЛС]
Показать сообщения:    

Текущее время: Сегодня 16:23

Часовой пояс: GMT



Вы не можете начинать темы
Вы не можете отвечать на сообщения
Вы не можете редактировать свои сообщения
Вы не можете удалять свои сообщения
Вы не можете голосовать в опросах
Вы не можете прикреплять файлы к сообщениям
Вы не можете скачивать файлы