Последние девушки / The Final Girls (2015) WEB-DLRip | L1

 
Автор Сообщение

BOSS ®

Пол:

Стаж: 2 года 1 месяц

Сообщений: 3735

Откуда: ODESSA



Награды: 20 (Подробнее)

Top Releaser 2 (Количество: 1) Top Seeder 5 (Количество: 1) Mega Releaser 3 (Количество: 1)
Торрент-статистика

Создавать темы 17-Окт-2015 14:06

[Цитировать]

Информация о фильме
Название: Последние девушки
Оригинальное название: The Final Girls
Год выпуска: 2015
Жанр: ужасы, комедия
Режиссер: Тодд Штраус-Шульсон
В ролях: Нина Добрев, Таисса Фармига, Малин Акерман, Александр Людвиг, Алиа Шокат, Хлоя Бриджес, Адам Дивайн, Анджела Тримбур, Томас Миддлдитч, Джеки Таттл
О фильме: В центре событий — девушка, тяжело переживающая смерть матери, которая в 80-е была звездой слэшеров. В годовщину её смерти по странному стечению обстоятельств Макс с друзьями оказывается в одном из этих фильмов. Теперь они вместе должны противостоять преследующему их маньяку.


Выпущено: США / Groundswell Productions, Studio Solutions
Продолжительность: 01:31:34
Озвучивание: Любительское (одноголосое) [datynet], перевод [Newrussubs]
Файл
Формат: AVI (XviD)
Качество: WEB-DLRip
Видео: 929 kbps, 720x304
Аудио: MP3, 128 kb/s (2 ch)
Размер: 700MB-

Media Info

General
Complete name : C:UsersuserDesktopPosledn1e.Devuchk1.2015.L1.WEB-DLRip.700MB.avi
Format : AVI
Format/Info : Audio Video Interleave
File size : 696 MiB
Duration : 1h 31mn
Overall bit rate mode : Variable
Overall bit rate : 1 062 Kbps
Writing application : VirtualDubMod 1.5.10.3 | www.virtualdub-fr.org || (build 2550/release)
Writing library : VirtualDubMod build 2550/release
Video
ID : 0
Format : MPEG-4 Visual
Format profile : Advanced Simple@L5
Format settings, BVOP : 3
Format settings, QPel : No
Format settings, GMC : No warppoints
Format settings, Matrix : Default (H.263)
Codec ID : XVID
Codec ID/Hint : XviD
Duration : 1h 31mn
Bit rate : 929 Kbps
Width : 720 pixels
Height : 304 pixels
Display aspect ratio : 2.35:1
Frame rate : 23.976 fps
Color space : YUV
Chroma subsampling : 4:2:0
Bit depth : 8 bits
Scan type : Progressive
Compression mode : Lossy
Bits/(Pixel*Frame) : 0.177
Stream size : 609 MiB (87%)
Writing library : XviD 1.2.1 (UTC 2008-12-04)
Audio
ID : 1
Format : MPEG Audio
Format version : Version 1
Format profile : Layer 3
Mode : Joint stereo
Mode extension : MS Stereo
Codec ID : 55
Codec ID/Hint : MP3
Duration : 1h 31mn
Bit rate mode : Variable
Bit rate : 120 Kbps
Nominal bit rate : 128 Kbps
Channel(s) : 2 channels
Sampling rate : 44.1 KHz
Compression mode : Lossy
Stream size : 78.9 MiB (11%)
Alignment : Aligned on interleaves
Interleave, duration : 26 ms (0.63 video frame)
Interleave, preload duration : 158 ms
Writing library : LAME3.99r
Encoding settings : -m j -V 4 -q 2 -lowpass 17 --abr 128

Скриншоты | повтор:

- -
[Профиль] [ЛС]
Показать сообщения:    

Текущее время: Сегодня 10:09

Часовой пояс: GMT



Вы не можете начинать темы
Вы не можете отвечать на сообщения
Вы не можете редактировать свои сообщения
Вы не можете удалять свои сообщения
Вы не можете голосовать в опросах
Вы не можете прикреплять файлы к сообщениям
Вы не можете скачивать файлы