Посланник / The Messenger (Орен Моверман / Oren Moverman) [2009, США, Драма, мелодрама, военный, BDRip] AVO (Сербин)

 
Автор Сообщение

TorrentFilm ®

Пол:

Стаж: 2 года

Сообщений: 7741



Награды: Нет

Торрент-статистика

Создавать темы 09-Мар-2015 00:01

[Цитировать]

Посланник / The Messenger
«Эта сторона войны всегда была закрыта для посторонних глаз»
- Год выпуска: 2009
Выпущено: США / Reason Pictures
Жанр: драма, мелодрама, военный
Продолжительность: 01:52:54
Перевод: Авторский (одноголосый закадровый) Юрий Сербин
Субтитры: нет-Режиссер:
Орен Моверман / Oren Moverman-В ролях:
Бен Фостер (Staff Sergeant Will Montgomery), Вуди Харрельсон (Captain Tony Stone), Саманта Мортон (Olivia Pitterson), Джена Мэлоун (Kelly), Стив Бушеми (Dale Martin), Имонн Уолкер (Colonel Stuart Dorsett), Йайа ДаКоста (Monica Washington), Портия (Mrs. Burrell), Лиза Джойс (Emily), Питер Френсис Джеймс (Dr. Grosso)-Описание:
Обязанности сержанта армии Соединенных Штатов Уилла Монтгомери просты и печальны — он должен лично сообщать жёнам погибших солдат о том, что их мужья не вернутся с фронта живыми. Сложно представить этическую дилемму «посланника смерти», ведь у сержанта Монтгомери появились чувства к одной из солдатских вдов.-Релиз групп | | IMDB | КиноПоиск | Сэмпл |-Тип релиза: BDRip [BDRemux | 1080p | HDCLUB]
Контейнер: AVI
Видео: 720x304 (2.37:1), 23.976 fps, XviD build 73 ~1455 kbps avg, 0.28 bit/pixel
Аудио: 48 kHz, AC3 Dolby Digital, 3/2 (L,C,R,l,r) + LFE ch, ~384.00 kbps avg
-

Скриншоты

MediaInfo

General
Complete name                            : D:\Poslannik_2009_BDRip_by_Dalemake.avi
Format                                   : AVI
Format/Info                              : Audio Video Interleave
File size                                : 1.46 GiB
Duration                                 : 1h 52mn
Overall bit rate                         : 1 849 Kbps
Writing application                      : VirtualDubMod 1.5.10.3 | www.virtualdub-fr.org || (build 2550/release)
Writing library                          : VirtualDubMod build 2550/release
Video
ID                                       : 0
Format                                   : MPEG-4 Visual
Format profile                           : Advanced Simple@L5
Format settings, BVOP                    : 1
Format settings, QPel                    : No
Format settings, GMC                     : No warppoints
Format settings, Matrix                  : Custom
Codec ID                                 : XVID
Codec ID/Hint                            : XviD
Duration                                 : 1h 52mn
Bit rate                                 : 1 456 Kbps
Width                                    : 720 pixels
Height                                   : 304 pixels
Display aspect ratio                     : 2.35:1
Frame rate                               : 23.976 fps
Color space                              : YUV
Chroma subsampling                       : 4:2:0
Bit depth                                : 8 bits
Scan type                                : Progressive
Compression mode                         : Lossy
Bits/(Pixel*Frame)                       : 0.277
Stream size                              : 1.15 GiB (79%)
Writing library                          : XviD 73
Audio
ID                                       : 1
Format                                   : AC-3
Format/Info                              : Audio Coding 3
Mode extension                           : CM (complete main)
Format settings, Endianness              : Big
Codec ID                                 : 2000
Duration                                 : 1h 52mn
Bit rate mode                            : Constant
Bit rate                                 : 384 Kbps
Channel(s)                               : 6 channels
Channel positions                        : Front: L C R, Side: L R, LFE
Sampling rate                            : 48.0 KHz
Bit depth                                : 16 bits
Compression mode                         : Lossy
Stream size                              : 310 MiB (21%)
Alignment                                : Split accross interleaves
Interleave, duration                     : 42 ms (1.00 video frame)
Interleave, preload duration             : 500 ms
-
[Профиль] [ЛС]

Создавать темы 06-Авг-2015 22:42 (спустя 4 месяца 28 дней)

Топик был перенесен из форума Фильмы до 2014 года в форум Фильмы до 2012 года
sergej644
 

Создавать темы 12-Июн-2016 08:49 (спустя 1 год 3 месяца)

Топик был перенесен из форума Фильмы 2011 года в форум Фильмы 2009 года
Russian Mafia
 
Кто просматривает тему:

Форум Тема Автор Размер
365 365: Изабелла и Колумб. Королевский посланник / Isabel y Colón: El Legado de un Reino [части 1-3 из 3] (Омар Плейте / Omar Pleite) [2008 г., Документальный, история, биографический, SATRip] skorpionN 1.13 GB
Фильмы 2011 года Послания / Messages (Дэвид Фэйрмэн / David Fairman) [2007, Великобритания, триллер, DVDRip] MVO TorrentFilm 744 MB
Ужасы и мистика Посланник (Берк Джен) [2014, Мистика, аудиокнига, MP3, 96 kbps, Ионкина Евгения] Magnat 481 MB
Фильмы 2015 года Посланник / The Messenger (2015) WEB-DL 720p | L2 Russian Mafia 3.1 GB
Фильмы 2015 года Посланник / The Messenger (2015) WEB-DLRip | L2 BOSS 1.36 GB
Фильмы 2009 года Посланник / The Messenger (Орен Моверман / Oren Moverman) [2009, США, Драма, мелодрама, военный, BDRip-AVC] AVO (Сербин) + Original (Eng) + Sub (Rus, Eng) TorrentFilm 1.46 GB
Фильмы 2009 года Посланник / The Messenger (Орен Моверман / Oren Moverman) [2009, США, Драма, мелодрама, военный, BDRip-AVC] MVO + Original (Eng) + Sub (Rus, Eng) TorrentFilm 2.19 GB
R.G.TorrentFilm Video Посланник смерти / Messenger of Death (Дж. Ли Томпсон) [1988 г., боевик, триллер, криминал, BDRip 720p] [MVO, AVO] Bathory 6.35 GB
Показать сообщения:    

Текущее время: Сегодня 08:06

Часовой пояс: GMT



Вы не можете начинать темы
Вы не можете отвечать на сообщения
Вы не можете редактировать свои сообщения
Вы не можете удалять свои сообщения
Вы не можете голосовать в опросах
Вы не можете прикреплять файлы к сообщениям
Вы не можете скачивать файлы