Посланники / The Messengers (Оксид Пан, Дэнни Пан / Oxide Pang Chun, Danny Pang) [2007, США, Канада, Ужасы, триллер, драма, DVDRip-AVC] Dub + AVO (Дольский)

 
Автор Сообщение

reversefile ®

Пол:

Стаж: 4 года 5 месяцев

Сообщений: 842

Откуда: ReverseFile.org



Награды: Нет

Торрент-статистика

Создавать темы 13-Авг-2014 10:04

[Цитировать]

Посланники / The Messengers
Страна: США, Канада
Жанр: Ужасы, триллер, драма
Год выпуска: 2007
Продолжительность: 01:26:44
Перевод 1: Профессиональный (дублированный)
Перевод 2: Авторский (одноголосый закадровый) Андрей Дольский
Cубтитры: нет
Оригинальная аудиодорожка: нет
Режиссер: Оксид Пан, Дэнни Пан / Oxide Pang Chun, Danny Pang
В ролях: Кристен Стюарт, Дилан МакДермотт, Пенелопа Энн Миллер, Джон Корбетт, Ивэн Тернер, Теодор Тернер, Уильям Б. Дэвис, Брент Бриско, Дастин Миллиган, Джоделль Ферланд
Описание: Cемья Соломон оставляет свою размеренную жизнь в Чикаго ради того, чтобы пожить на уединенной ферме в Северной Дакоте. Среди усыпанных подсолнухами идиллических полей, шестнадцатилетняя Джесс очень скоро понимает, каким кошмаром может обернуться уединение. Сразу после переезда, Джесс и ее трехлетний брат Бен видят зловещих призраков, которых никто кроме них не замечает.
Когда призраки начинают вести себя агрессивно, у родителей появляются сомнения в психическом здоровье Джесс. Ее небезоблачное прошлое сталкивается с прошлым тех, кто когда-то жил в этом доме — опасное соседство для раздираемого противоречиями подростка. Ей не верят те, кого она отчаянно пытается предупредить, пока еще не слишком поздно…

Доп. информация: Исходный видеоряд с Кинозала. За звуковую дорожку с авторским переводом Дольского огромное спасибо B@G. Синхронизация звуковой дороги - hexagen.
Сэмпл: http://sendfile.su/996369
Качество видео: DVDRip-AVC
Формат видео: MKV
Видео: AVC, 720x548@1024x548, 16:9, 1811 Kbps, 25,000 fps, 0,184 bpp
Аудио 1: AC3 Dolby Digital, 48 kHz, 448 kbps, 3/2 (L,C,R,l,r) + LFE ch
Аудио 2: AC3 Dolby Digital, 48 kHz, 192 kbps, 2/0 (L,R)

MediaInfo

Общее
Уникальный идентификатор : 206066584978609758536127304019903741160 (0x9B06FB0C3144F38AA85CF62CDCF77CE8)
Полное имя : D:\Downloads\The.Messengers.2007.DVDRip-AVC.mkv
Формат : Matroska
Версия формата : Version 2
Размер файла : 1,49 Гбайт
Продолжительность : 1 ч. 26 м.
Общий поток : 2452 Кбит/сек
Дата кодирования : UTC 2014-06-30 16:32:12
Программа кодирования : mkvmerge v4.6.0 ('Still Crazy After All These Years') built on Mar 10 2011 02:50:32
Библиотека кодирования : libebml v1.2.0 + libmatroska v1.1.0
Видео
Идентификатор : 1
Формат : AVC
Формат/Информация : Advanced Video Codec
Профиль формата : High@L4.1
Параметр CABAC формата : Да
Параметр ReFrames формата : 8 кадров
Идентификатор кодека : V_MPEG4/ISO/AVC
Продолжительность : 1 ч. 26 м.
Битрейт : 1811 Кбит/сек
Ширина : 720 пикселей
Высота : 548 пикселей
Соотношение сторон : 1,85:1
Режим частоты кадров : Постоянный
Частота кадров : 25,000 кадров/сек
Цветовое пространство : YUV
Субдискретизация насыщенности : 4:2:0
Битовая глубина : 8 бит
Тип развёртки : Прогрессивная
Бит/(Пиксели*Кадры) : 0.184
Размер потока : 1,07 Гбайт (72%)
Библиотека кодирования : x264 core 112 r1834 a51816a
Настройки программы : cabac=1 / ref=8 / deblock=1:-1:-1 / analyse=0x3:0x133 / me=umh / subme=10 / psy=1 / psy_rd=1.00:0.10 / mixed_ref=1 / me_range=16 / chroma_me=1 / trellis=2 / 8x8dct=1 / cqm=0 / deadzone=21,11 / fast_pskip=1 / chroma_qp_offset=-3 / threads=6 / sliced_threads=0 / nr=0 / decimate=1 / interlaced=0 / constrained_intra=0 / bframes=7 / b_pyramid=2 / b_adapt=2 / b_bias=0 / direct=3 / weightb=1 / open_gop=0 / weightp=1 / keyint=250 / keyint_min=25 / scenecut=40 / intra_refresh=0 / rc_lookahead=40 / rc=2pass / mbtree=1 / bitrate=1811 / ratetol=1.0 / qcomp=0.60 / qpmin=10 / qpmax=51 / qpstep=4 / cplxblur=20.0 / qblur=0.5 / vbv_maxrate=17500 / vbv_bufsize=14000 / ip_ratio=1.40 / aq=1:1.00 / nal_hrd=none
Default : Да
Forced : Нет
Аудио #1
Идентификатор : 2
Формат : AC-3
Формат/Информация : Audio Coding 3
Расширение режима : CM (complete main)
Параметр Endianness формата : Big
Идентификатор кодека : A_AC3
Продолжительность : 1 ч. 26 м.
Вид битрейта : Постоянный
Битрейт : 448 Кбит/сек
Каналы : 6 каналов
Расположение каналов : Front: L C R, Side: L R, LFE
Частота : 48,0 КГц
Битовая глубина : 16 бит
Метод сжатия : С потерями
Размер потока : 278 Мбайт (18%)
Заголовок : DUB
Язык : Russian
Default : Да
Forced : Нет
Аудио #2
Идентификатор : 3
Формат : AC-3
Формат/Информация : Audio Coding 3
Расширение режима : CM (complete main)
Параметр Endianness формата : Big
Идентификатор кодека : A_AC3
Продолжительность : 1 ч. 26 м.
Вид битрейта : Постоянный
Битрейт : 192 Кбит/сек
Каналы : 2 канала
Расположение каналов : Front: L R
Частота : 48,0 КГц
Битовая глубина : 16 бит
Метод сжатия : С потерями
Размер потока : 119 Мбайт (8%)
Заголовок : AVO
Язык : Russian
Default : Нет
Forced : Нет

Скриншот c названием фильма

Скриншоты

[Профиль] [ЛС]

Создавать темы 06-Авг-2015 23:18 (спустя 11 месяцев 24 дня)

Топик был перенесен из форума Фильмы до 2014 года в форум Фильмы до 2012 года
sergej644
 
Кто просматривает тему:

Форум Тема Автор Размер
365 365: Изабелла и Колумб. Королевский посланник / Isabel y Colón: El Legado de un Reino [части 1-3 из 3] (Омар Плейте / Omar Pleite) [2008 г., Документальный, история, биографический, SATRip] skorpionN 1.13 GB
Фильмы 2011 года Послания / Messages (Дэвид Фэйрмэн / David Fairman) [2007, Великобритания, триллер, DVDRip] MVO TorrentFilm 744 MB
Ужасы и мистика Посланник (Берк Джен) [2014, Мистика, аудиокнига, MP3, 96 kbps, Ионкина Евгения] Magnat 481 MB
Фильмы 2015 года Посланник / The Messenger (2015) WEB-DL 720p | L2 Russian Mafia 3.1 GB
Фильмы 2015 года Посланник / The Messenger (2015) WEB-DLRip | L2 BOSS 1.36 GB
Фильмы 2009 года Посланник / The Messenger (Орен Моверман / Oren Moverman) [2009, США, Драма, мелодрама, военный, BDRip-AVC] AVO (Сербин) + Original (Eng) + Sub (Rus, Eng) TorrentFilm 1.46 GB
Фильмы 2009 года Посланник / The Messenger (Орен Моверман / Oren Moverman) [2009, США, Драма, мелодрама, военный, BDRip-AVC] MVO + Original (Eng) + Sub (Rus, Eng) TorrentFilm 2.19 GB
Фильмы 2009 года Посланник / The Messenger (Орен Моверман / Oren Moverman) [2009, США, Драма, мелодрама, военный, BDRip] AVO (Сербин) TorrentFilm 1.46 GB
Показать сообщения:    

Текущее время: Сегодня 20:46

Часовой пояс: GMT



Вы не можете начинать темы
Вы не можете отвечать на сообщения
Вы не можете редактировать свои сообщения
Вы не можете удалять свои сообщения
Вы не можете голосовать в опросах
Вы не можете прикреплять файлы к сообщениям
Вы не можете скачивать файлы