Посвященный / The Giver (2014) BDRip 720p от MediaClub | D

 
Автор Сообщение

sergej644 ®

Пол:

Стаж: 4 года 11 месяцев

Сообщений: 6035

Откуда: Soviet Union



Награды: Нет

Торрент-статистика

Создавать темы 10-Фев-2015 14:37

[Цитировать]

Информация о фильме
Название: Посвященный
Оригинальное название: The Giver
Год выхода: 2014
Жанр: Фантастика, драма
Режиссер: Филлип Нойс
В ролях: Брентон Туэйтс, Джефф Бриджес, Мэрил Стрип, Одейя Раш, Кэти Холмс, Александр Скарсгард, Кэмерон Монахэн, Тейлор Свифт, Александр Джиллингс, Джеймс Джиллингс
О фильме:
Юный Джонас живет в идеальном, максимально цивилизованном обществе будущего, где больше нет войн, боли, страданий, радости, воспоминаний. Для каждого члена здесь определен идеальный порядок существования, и теперь никому не приходится выбирать шаг, мысль, цвет — все вокруг однозначно серое… По решению Совета общества Джонас назначается Хранителем памяти, которую он должен перенять у Учителя по имени Дающий. Юноше открывается правда о настоящем мире, но чтобы освободить свой мир, он должен бросить ему вызов…

Страна: США
Студия: As Is Productions, The Weinstein Company LLC, Tonik Productions, Walden Media
Продолжительность: 01:33:18
Перевод: Дублированный
Кодек: x264
Качество: BDRip 720p
Видео: MPEG-4 AVC, 3000 Кбит/с, 1280x720, 25.000 кадр/с
Звук:
Аудио #1: Русский (AC3, 6 ch, 640 Кбит/с) / Дублированный (Blu-ray, RUS)
Аудио #2: Русский (DTS, 6 ch, 1510 Кбит/с) / Дублированный (Blu-ray, RUS)
Субтитры: Нет
Семпл

Знаете ли вы, что...

» Фильм снят по мотивам романа Лоис Лоури «Дающий» (The Giver, 1993).
» Дианна Агрон пробовалась на роль в этом фильме.
» Съемки фильма проходили в Кейптауне, ЮАР.
» Певица Тейлор Свифт получила предложение сыграть Розмари через неделю после концерта в Лос-Анджелесе, на котором, как оказалось, побывали создатели фильма.
» Мэрил Стрип параллельно с этим фильмом снималась в фильме Роба Маршалла «Чем дальше в лес» (2014).

logx264

raw [info]: 1280x720p 1:1 @ 25/1 fps (cfr)
x264 [info]: using SAR=1/1
x264 [info]: using cpu capabilities: MMX2 SSE2Fast SSSE3 SSE4.2 AVX AVX2 FMA3 LZCNT BMI2
x264 [info]: profile High, level 4.1
x264 [info]: frame I:1274 Avg QP:14.68 size: 82205
x264 [info]: frame P:33959 Avg QP:17.56 size: 29720
x264 [info]: frame B:104741 Avg QP:18.43 size: 9356
x264 [info]: consecutive B-frames: 3.7% 3.9% 16.0% 18.1% 14.1% 31.4% 5.9% 1.6% 1.9% 1.0% 2.4%
x264 [info]: mb I I16..4: 7.1% 77.6% 15.3%
x264 [info]: mb P I16..4: 1.8% 14.1% 1.2% P16..4: 30.9% 31.9% 8.6% 1.2% 0.1% skip:10.3%
x264 [info]: mb B I16..4: 0.2% 1.3% 0.1% B16..8: 33.7% 16.7% 2.0% direct: 4.2% skip:41.7% L0:42.5% L1:47.8% BI: 9.7%
x264 [info]: 8x8 transform intra:81.8% inter:59.8%
x264 [info]: direct mvs spatial:97.7% temporal:2.3%
x264 [info]: coded y,uvDC,uvAC intra: 78.9% 51.0% 30.5% inter: 18.0% 10.3% 3.9%
x264 [info]: i16 v,h,dc,p: 22% 15% 8% 55%
x264 [info]: i8 v,h,dc,ddl,ddr,vr,hd,vl,hu: 9% 9% 10% 9% 12% 12% 13% 12% 14%
x264 [info]: i4 v,h,dc,ddl,ddr,vr,hd,vl,hu: 13% 12% 11% 7% 13% 12% 12% 9% 11%
x264 [info]: i8c dc,h,v,p: 29% 43% 16% 12%
x264 [info]: Weighted P-Frames: Y:9.0% UV:5.2%
x264 [info]: ref P L0: 50.3% 8.3% 18.5% 6.6% 5.7% 4.5% 3.4% 1.9% 0.7% 0.1%
x264 [info]: ref B L0: 74.2% 12.7% 5.9% 2.9% 2.6% 1.3% 0.4%
x264 [info]: ref B L1: 91.6% 8.4%
x264 [info]: kb/s:2991.87

MI

General
Unique ID : 248451734476679984890735055468238350390 (0xBAEA10429BAA55ACA2FA29785A362836)
Complete name : The.Giver.2014.BDRip.720p.MediaClub.mkv
Format : Matroska
Format version : Version 4 / Version 2
File size : 3.35 GiB
Duration : 1h 33mn
Overall bit rate : 5 143 Kbps
Movie name : release MediaClub - MINION
Encoded date : UTC 2014-10-16 01:38:25
Writing application : mkvmerge v6.9.1 ('Blue Panther') 64bit built on Apr 18 2014 18:23:38
Writing library : libebml v1.3.0 + libmatroska v1.4.1
Video
ID : 1
Format : AVC
Format/Info : Advanced Video Codec
Format profile : High@L4.1
Format settings, CABAC : Yes
Format settings, ReFrames : 8 frames
Codec ID : V_MPEG4/ISO/AVC
Duration : 1h 33mn
Bit rate : 3 000 Kbps
Width : 1 280 pixels
Height : 720 pixels
Display aspect ratio : 16:9
Frame rate mode : Constant
Frame rate : 25.000 fps
Color space : YUV
Chroma subsampling : 4:2:0
Bit depth : 8 bits
Scan type : Progressive
Bits/(Pixel*Frame) : 0.130
Stream size : 1.89 GiB (56%)
Title : Посвященный 2014 BDRip 720p - [release MediaClub - MINION]
Writing library : x264 core 142 r2431 ac76440
Encoding settings : cabac=1 / ref=8 / deblock=1:-3:-3 / analyse=0x3:0x133 / me=umh / subme=11 / psy=1 / psy_rd=1.00:0.10 / mixed_ref=1 / me_range=48 / chroma_me=1 / trellis=2 / 8x8dct=1 / cqm=0 / deadzone=21,11 / fast_pskip=0 / chroma_qp_offset=-3 / threads=6 / lookahead_threads=1 / sliced_threads=0 / nr=0 / decimate=0 / interlaced=0 / bluray_compat=0 / constrained_intra=0 / bframes=10 / b_pyramid=2 / b_adapt=2 / b_bias=0 / direct=3 / weightb=1 / open_gop=0 / weightp=2 / keyint=250 / keyint_min=25 / scenecut=40 / intra_refresh=0 / rc=2pass / mbtree=0 / bitrate=3000 / ratetol=1.0 / qcomp=0.60 / qpmin=10 / qpmax=51 / qpstep=4 / cplxblur=20.0 / qblur=0.5 / ip_ratio=1.40 / pb_ratio=1.30 / aq=1:1.00
Language : English
Default : Yes
Forced : No
Audio #1
ID : 2
Format : AC-3
Format/Info : Audio Coding 3
Mode extension : CM (complete main)
Format settings, Endianness : Big
Codec ID : A_AC3
Duration : 1h 33mn
Bit rate mode : Constant
Bit rate : 640 Kbps
Channel(s) : 6 channels
Channel positions : Front: L C R, Side: L R, LFE
Sampling rate : 48.0 KHz
Bit depth : 16 bits
Compression mode : Lossy
Stream size : 427 MiB (12%)
Title : DUB - Blu-ray, RUS
Language : Russian
Default : Yes
Forced : No
Audio #2
ID : 3
Format : DTS
Format/Info : Digital Theater Systems
Mode : 16
Format settings, Endianness : Big
Codec ID : A_DTS
Duration : 1h 33mn
Bit rate mode : Constant
Bit rate : 1 509 Kbps
Channel(s) : 6 channels
Channel positions : Front: L C R, Side: L R, LFE
Sampling rate : 48.0 KHz
Bit depth : 16 bits
Compression mode : Lossy
Stream size : 1 007 MiB (29%)
Title : DUB - Blu-ray, RUS
Language : Russian
Default : No
Forced : No
Menu
00:00:00.000 : en:Chapter 01
00:08:17.000 : en:Chapter 02
00:14:56.760 : en:Chapter 03
00:23:28.360 : en:Chapter 04
00:30:40.880 : en:Chapter 05
00:39:11.440 : en:Chapter 06
00:46:37.880 : en:Chapter 07
00:54:25.000 : en:Chapter 08
01:02:10.280 : en:Chapter 09
01:10:47.440 : en:Chapter 10
01:17:26.440 : en:Chapter 11
01:23:31.240 : en:Chapter 12

Скриншоты



[Профиль] [ЛС]
Показать сообщения:    

Текущее время: Сегодня 09:58

Часовой пояс: GMT



Вы не можете начинать темы
Вы не можете отвечать на сообщения
Вы не можете редактировать свои сообщения
Вы не можете удалять свои сообщения
Вы не можете голосовать в опросах
Вы не можете прикреплять файлы к сообщениям
Вы не можете скачивать файлы