Посвященный / The Giver (2014) BDRip [720p]

 
Автор Сообщение

sergej644 ®

Пол:

Стаж: 4 года 11 месяцев

Сообщений: 6046

Откуда: Soviet Union



Награды: Нет

Торрент-статистика

Создавать темы 17-Окт-2014 21:00

[Цитировать]

- Посвященный / The Giver (2014) BDRip [720p]
"Search for the truth. Find freedom"
-Год выпуска: 2014
Производство: США / As Is Productions, The Weinstein Company LLC
Жанр: фантастика, драма
Режиссер: Филлип Нойс
Продюсер: Джефф Бриджес, Нил Кёнигсберг, Николь Сильвер
Актеры: Брентон Туэйтс, Джефф Бриджес, Мэрил Стрип, Одейя Раш, Кэти Холмс, Александр Скарсгард, Камерон Монахэн, Тейлор Свифт, Эмма Трамбле, Александр Джиллингс
Описание: Юный Джонас живет в идеальном, максимально цивилизованном обществе будущего, где больше нет войн, боли, страданий, радости, воспоминаний. Для каждого члена здесь определен идеальный порядок существования, и теперь никому не приходится выбирать шаг, мысль, цвет — все вокруг однозначно серое… По решению Совета общества Джонас назначается Хранителем памяти, которую он должен перенять у Учителя по имени Дающий. Юноше открывается правда о настоящем мире, но чтобы освободить свой мир, он должен бросить ему вызов…

Дата мировой премьеры: 11 августа 2014
Дата российской премьеры: 21 августа 2014, «Парадиз»
Дата выхода DVD релиза: 21 октября 2014, «Парадиз / Активижен»
Дата выхода Blu-ray релиза: 21 октября 2014, «Парадиз / Активижен»
Рейтинг MPAA: PG-13
Возраст: 12+
Продолжительность: 01:33:18
Перевод: Профессиональный (дублированный) [Лицензия]
Cубтитры: Отсутствуют
Качество: BDRip [720p] (BD RUS)
Видео: MPEG-4 AVC/H.264, 1280x720 (16:9), 6 400 kbps, 25.000 fps
Аудио 1: Русский/Профессиональный (дублированный), AC3 / 5.1 / 640 Kbps / 48.0 KHz-

MediaInfo

General
Unique ID                                : 233800569116389231374367592420535982020 (0xAFE45A09826D5429A60D3E8553A457C4)
Complete name                            : I:\mod\out\The.Giver.2014.BDRip.720p.D.NNM.mkv
Format                                   : Matroska
Format version                           : Version 4 / Version 2
File size                                : 4.71 GiB
Duration                                 : 1h 33mn
Overall bit rate                         : 7 221 Kbps
Movie name                               : The Giver (2014) [BD RUS]
Encoded date                             : UTC 2014-10-17 17:20:33
Writing application                      : mkvmerge v7.2.0 ('On Every Street') 64bit built on Sep 13 2014 15:52:10
Writing library                          : libebml v1.3.0 + libmatroska v1.4.1
Attachements                             : cover.jpg / info.txt
DURATION                                 : 01:33:18.944000000
NUMBER_OF_FRAMES                         : 174967
NUMBER_OF_BYTES                          : 447915520
_STATISTICS_WRITING_APP                  : mkvmerge v7.2.0 ('On Every Street') 64bit built on Sep 13 2014 15:52:10
_STATISTICS_WRITING_DATE_UTC             : 2014-10-17 17:20:33
_STATISTICS_TAGS                         : BPS DURATION NUMBER_OF_FRAMES NUMBER_OF_BYTES
Video
ID                                       : 1
Format                                   : AVC
Format/Info                              : Advanced Video Codec
Format profile                           : [url=mailto:High@L4.1]High@L4.1[/url]
Format settings, CABAC                   : Yes
Format settings, ReFrames                : 9 frames
Codec ID                                 : V_MPEG4/ISO/AVC
Duration                                 : 1h 33mn
Bit rate                                 : 6 437 Kbps
Width                                    : 1 280 pixels
Height                                   : 720 pixels
Display aspect ratio                     : 16:9
Frame rate mode                          : Constant
Frame rate                               : 25.000 fps
Standard                                 : PAL
Color space                              : YUV
Chroma subsampling                       : 4:2:0
Bit depth                                : 8 bits
Scan type                                : Progressive
Bits/(Pixel*Frame)                       : 0.279
Stream size                              : 4.20 GiB (89%)
Title                                    : The Giver (2014)
Language                                 : English
Default                                  : Yes
Forced                                   : No
Color primaries                          : BT.709
Transfer characteristics                 : BT.709
Matrix coefficients                      : BT.709
DURATION                                 : 01:33:18.960000000
NUMBER_OF_FRAMES                         : 139974
NUMBER_OF_BYTES                          : 4604230567
_STATISTICS_WRITING_APP                  : mkvmerge v7.2.0 ('On Every Street') 64bit built on Sep 13 2014 15:52:10
_STATISTICS_WRITING_DATE_UTC             : 2014-10-17 17:20:33
_STATISTICS_TAGS                         : BPS DURATION NUMBER_OF_FRAMES NUMBER_OF_BYTES
Audio
ID                                       : 2
Format                                   : AC-3
Format/Info                              : Audio Coding 3
Mode extension                           : CM (complete main)
Format settings, Endianness              : Big
Codec ID                                 : A_AC3
Duration                                 : 1h 33mn
Bit rate mode                            : Constant
Bit rate                                 : 640 Kbps
Channel(s)                               : 6 channels
Channel positions                        : Front: L C R, Side: L R, LFE
Sampling rate                            : 48.0 KHz
Bit depth                                : 16 bits
Compression mode                         : Lossy
Stream size                              : 427 MiB (9%)
Title                                    : DUB [BD RUS] AC3@640
Language                                 : Russian
Default                                  : Yes
Forced                                   : Yes
Menu
00:00:00.000                             : en:Chapter 01
00:08:17.000                             : en:Chapter 02
00:14:56.760                             : en:Chapter 03
00:23:28.360                             : en:Chapter 04
00:30:40.880                             : en:Chapter 05
00:39:11.440                             : en:Chapter 06
00:46:37.880                             : en:Chapter 07
00:54:25.000                             : en:Chapter 08
01:02:10.280                             : en:Chapter 09
01:10:47.440                             : en:Chapter 10
01:17:26.440                             : en:Chapter 11
01:23:31.240                             : en:Chapter 12

x264 лог

x264 [info]: frame I:1274  Avg QP:13.62  size:130375
x264 [info]: frame P:32392 Avg QP:16.31  size: 55352
x264 [info]: frame B:106308 Avg QP:17.15  size: 24882
x264 [info]: consecutive B-frames:  2.8%  2.8% 14.7% 19.0% 17.0% 34.3%  5.4%  1.0%  0.6%  0.3%  0.2%  0.3%  0.2%  0.3%  1.1%
x264 [info]: mb I  I16..4: 18.1% 53.9% 28.1%
x264 [info]: mb P  I16..4:  1.8% 13.9%  2.1%  P16..4: 19.6% 30.3% 14.9%  6.8%  1.1%    skip: 9.6%
x264 [info]: mb B  I16..4:  0.2%  2.3%  0.3%  B16..8: 30.4% 22.7%  5.5%  direct:12.9%  skip:25.6%  L0:36.8% L1:43.2% BI:20.0%
x264 [info]: 8x8 transform intra:76.2% inter:37.3%
x264 [info]: direct mvs  spatial:97.0% temporal:3.0%
x264 [info]: coded y,uvDC,uvAC intra: 90.4% 59.1% 47.4% inter: 39.2% 20.1% 9.1%
x264 [info]: i16 v,h,dc,p: 21% 11% 15% 54%
x264 [info]: i8 v,h,dc,ddl,ddr,vr,hd,vl,hu:  9%  9% 11% 10% 12% 11% 12% 12% 15%
x264 [info]: i4 v,h,dc,ddl,ddr,vr,hd,vl,hu:  9%  9% 10%  8% 13% 12% 13% 11% 14%
x264 [info]: i8c dc,h,v,p: 23% 36% 13% 28%
x264 [info]: Weighted P-Frames: Y:3.4% UV:1.9%
x264 [info]: ref P L0: 58.5%  6.6% 14.8%  6.8%  4.6%  3.4%  2.6%  1.5%  1.2%  0.2%  0.0%
x264 [info]: ref B L0: 82.5%  9.4%  4.0%  1.6%  1.0%  0.7%  0.5%  0.2%
x264 [info]: ref B L1: 92.9%  7.1%
x264 [info]: kb/s:6578.69
Скриншоты: -
Время раздачи: 24/7, до 5 скачавших.
[Профиль] [ЛС]
Показать сообщения:    

Текущее время: Сегодня 11:06

Часовой пояс: GMT



Вы не можете начинать темы
Вы не можете отвечать на сообщения
Вы не можете редактировать свои сообщения
Вы не можете удалять свои сообщения
Вы не можете голосовать в опросах
Вы не можете прикреплять файлы к сообщениям
Вы не можете скачивать файлы