Портрет города / Portrait of a City (Лиам Дали / Liam Dale) [2010, Документальный, HDTVRip 720p]

 
Автор Сообщение

TorrentFilm ®

Пол:

Стаж: 2 года

Сообщений: 7741



Награды: Нет

Торрент-статистика

Создавать темы 27-Май-2015 00:04

[Цитировать]

Портрет города / Portrait of a City / (6 серий, Лондон, Москва, Париж, Рим, Вена, Мадрид)
Год выпуска: 2010
Страна: Великобритания
Студия: VIBE Production Ltd
Жанр: Документальный
Продолжительность: 6 х 00:26:00
Перевод: Студийный (одноголосый закадровый)
Доп. инфо о переводе: ТПО «Ред Медиа»
Русские субтитры: нет
Режиссер: Лиам Дали / Liam Dale
Описание: Романтический Париж, строгий Лондон, вечный Рим, энергичная Москва, музыкальная Вена… Зритель прогуляется по улицам этих знаменитых городов, прочувствует неповторимый архитектурный колорит европейских столиц.
Тип релиза: HDTVRip 720p
Контейнер: MKV
Видео: 1280x720 at 25 fps, x264@L4.1, 3420-4658 kbps
Аудио: Russian: 48 kHz/16-bit, АС 2.0 (L,R) ch, ~192 kbps
Релиз: by DeTorquemada
За исходник спасибо kuzmichm2196

Портрет города - Лондон / Portrait of a City - London

Всякий путешественник, желающий увидеть новые места, захватывающие красоты мира непременно должен посетить Лондон. Этот оживленный город полон соблазнов, таких как рестораны высочайшего уровня и целые районы элитных бутиков. Здесь идёт зажигательная ночная жизнь, всё фонтанирует позитивной энергией. В столице Британии есть всё, чего только можно желать. Вас очарует не только сияние городских огней, но и великолепные памятники, из любой точки города откроется потрясающий вид. Захватывающая дух архитектура прошлых эпох - память о том, что Лондон был центром могущественной Британской империи.
В этом фильме рассказывается о богатом культурном наследии этого города, мы заглянем в его прошлое и вспомним самые яркие явления его истории. Вы узнаете, что величественные здания, устремленные в небеса, могут поверить нам множество историй о завоевании Англии норманнами в 1066 году, о временах великих монархов и о сегодняшнем времени. Вы насладитесь видами прекрасных парков и садов, посетите лондонские музеи, а в конце этого путешествия просто полюбуетесь красивыми видами. У вас не останется никаких сомнений, в том, что Лондон один из самых потрясающих городов нашей планеты.

MediaInfo

ОбщееУникальный идентификатор : 220269999416876876941828628547119543680 (0xA5B6757220E34389A1897D37BBE2F580)Полное имя : Portrait.of.a.City.2010.720p.HDTVRip.Rus.HDCLUB\Portrait.of.a.City-London.2010.720p.HDTVRip.Rus.HDCLUB.mkvФормат : MatroskaВерсия формата : Version 4 / Version 2Размер файла : 885 МбайтПродолжительность : 25 м.Общий поток : 4766 Кбит/секНазвание фильма : Create by DeTorquemada for HDCLUBДата кодирования : UTC 2015-05-09 08:20:11Программа кодирования : mkvmerge v7.8.0 ('River Man') 64bit built on Mar 27 2015 16:31:37Библиотека кодирования : libebml v1.3.1 + libmatroska v1.4.2
ВидеоИдентификатор : 1Формат : AVCФормат/Информация : Advanced Video CodecПрофиль формата : High@L4.1Параметр CABAC формата : ДаПараметр ReFrames формата : 7 кадровИдентификатор кодека : V_MPEG4/ISO/AVCПродолжительность : 25 м.Битрейт : 4479 Кбит/секШирина : 1280 пикселейВысота : 720 пикселейСоотношение сторон : 16:9Режим частоты кадров : ПостоянныйЧастота кадров : 25,000 кадров/секЦветовое пространство : YUVСубдискретизация насыщенности : 4:2:0Битовая глубина : 8 битТип развёртки : ПрогрессивнаяБит/(Пиксели*Кадры) : 0.194Размер потока : 832 Мбайт (94%)Заголовок : Портрет города - Лондон / Portrait of a City - London (2010) - Release for HDCLUBБиблиотека кодирования : x264 core 146 r2538 121396cНастройки программы : cabac=1 / ref=7 / deblock=1:-3:-3 / analyse=0x3:0x113 / me=umh / subme=10 / psy=1 / psy_rd=1.00:0.00 / mixed_ref=1 / me_range=48 / chroma_me=1 / trellis=2 / 8x8dct=1 / cqm=0 / deadzone=21,11 / fast_pskip=1 / chroma_qp_offset=-2 / threads=6 / lookahead_threads=1 / sliced_threads=0 / nr=0 / decimate=1 / interlaced=0 / bluray_compat=0 / constrained_intra=0 / bframes=3 / b_pyramid=2 / b_adapt=2 / b_bias=0 / direct=1 / weightb=1 / open_gop=0 / weightp=2 / keyint=250 / keyint_min=25 / scenecut=40 / intra_refresh=0 / rc_lookahead=65 / rc=crf / mbtree=0 / crf=18.0 / qcomp=0.60 / qpmin=0 / qpmax=69 / qpstep=4 / vbv_maxrate=50000 / vbv_bufsize=62500 / crf_max=0.0 / nal_hrd=none / filler=0 / ip_ratio=1.40 / pb_ratio=1.30 / aq=1:0.80Язык : EnglishDefault : ДаForced : НетКоэффициенты матрицы : BT.709
АудиоИдентификатор : 2Формат : AC-3Формат/Информация : Audio Coding 3Расширение режима : CM (complete main)Параметр Endianness формата : BigИдентификатор кодека : A_AC3Продолжительность : 25 м.Вид битрейта : ПостоянныйБитрейт : 192 Кбит/секКаналы : 2 каналаРасположение каналов : Front: L RЧастота : 48,0 КГцБитовая глубина : 16 битМетод сжатия : С потерямиРазмер потока : 35,6 Мбайт (4%)Заголовок : 48KHz/16-bit, АС3, 2.0 (L,R) ch, 192 kbps - Одноголосый закадровый, студия "ТПО Ред Медиа"Язык : RussianDefault : ДаForced : Нет

Скриншоты

Портрет города - Москва / Portrait of a City - Moskow

Россия. Такой атмосферы как здесь нет больше нигде в мире. Хотя, как ни странно, многое об этой стране неизвестно приезжающим сюда туристам. Однако, увидев некоторые из потрясающих достопримечательностей Москвы, ее огромной шумной столицы, вы поймете, почему этот город просто необходимо посетить и почему в последние годы он стал столь притягателен для туристов.
Удивительное сочетание причудливо украшенных церквей, монументальной скульптуры и гигантских правительственных зданий коммунистической эпохи - делает Москву городом контрастов, который не может не завоевать сердце каждого, кто ходил по его оживленным улицам.
В этом фильме мы исследуем его архитектурные чудеса, совершим захватывающее путешествие в его прошлое, изучив его историю начиная со средних веков до бурного ХХ столетия, и узнаем, как эта удивительная столица развивалась, расцветала и стала столь популярным местом для отдыха и туризма.

MediaInfo

ОбщееУникальный идентификатор : 190540622822859931178525283768769666245 (0x8F58CA033900AEDDBA77B95CAA335CC5)Полное имя : Portrait.of.a.City.2010.720p.HDTVRip.Rus.HDCLUB\Portrait.of.a.City-Moskow.2010.720p.HDTVRip.Rus.HDCLUB.mkvФормат : MatroskaВерсия формата : Version 4 / Version 2Размер файла : 685 МбайтПродолжительность : 25 м.Общий поток : 3686 Кбит/секНазвание фильма : Create by DeTorquemada for HDCLUBДата кодирования : UTC 2015-05-09 08:22:32Программа кодирования : mkvmerge v7.8.0 ('River Man') 64bit built on Mar 27 2015 16:31:37Библиотека кодирования : libebml v1.3.1 + libmatroska v1.4.2
ВидеоИдентификатор : 1Формат : AVCФормат/Информация : Advanced Video CodecПрофиль формата : High@L4.1Параметр CABAC формата : ДаПараметр ReFrames формата : 7 кадровИдентификатор кодека : V_MPEG4/ISO/AVCПродолжительность : 25 м.Битрейт : 3420 Кбит/секШирина : 1280 пикселейВысота : 720 пикселейСоотношение сторон : 16:9Режим частоты кадров : ПостоянныйЧастота кадров : 25,000 кадров/секЦветовое пространство : YUVСубдискретизация насыщенности : 4:2:0Битовая глубина : 8 битТип развёртки : ПрогрессивнаяБит/(Пиксели*Кадры) : 0.148Размер потока : 636 Мбайт (93%)Заголовок : Портрет города - Москва / Portrait of a City - Moskow (2010) - Release for HDCLUBБиблиотека кодирования : x264 core 146 r2538 121396cНастройки программы : cabac=1 / ref=7 / deblock=1:-3:-3 / analyse=0x3:0x113 / me=umh / subme=10 / psy=1 / psy_rd=1.00:0.00 / mixed_ref=1 / me_range=48 / chroma_me=1 / trellis=2 / 8x8dct=1 / cqm=0 / deadzone=21,11 / fast_pskip=1 / chroma_qp_offset=-2 / threads=6 / lookahead_threads=1 / sliced_threads=0 / nr=0 / decimate=1 / interlaced=0 / bluray_compat=0 / constrained_intra=0 / bframes=3 / b_pyramid=2 / b_adapt=2 / b_bias=0 / direct=1 / weightb=1 / open_gop=0 / weightp=2 / keyint=250 / keyint_min=25 / scenecut=40 / intra_refresh=0 / rc_lookahead=65 / rc=crf / mbtree=0 / crf=18.0 / qcomp=0.60 / qpmin=0 / qpmax=69 / qpstep=4 / vbv_maxrate=50000 / vbv_bufsize=62500 / crf_max=0.0 / nal_hrd=none / filler=0 / ip_ratio=1.40 / pb_ratio=1.30 / aq=1:0.80Язык : EnglishDefault : ДаForced : НетКоэффициенты матрицы : BT.709
АудиоИдентификатор : 2Формат : AC-3Формат/Информация : Audio Coding 3Расширение режима : CM (complete main)Параметр Endianness формата : BigИдентификатор кодека : A_AC3Продолжительность : 25 м.Вид битрейта : ПостоянныйБитрейт : 192 Кбит/секКаналы : 2 каналаРасположение каналов : Front: L RЧастота : 48,0 КГцБитовая глубина : 16 битМетод сжатия : С потерямиРазмер потока : 35,7 Мбайт (5%)Заголовок : 48KHz/16-bit, АС3, 2.0 (L,R) ch, 192 kbps - Одноголосый закадровый, студия "ТПО Ред Медиа"Язык : RussianDefault : ДаForced : Нет

Скриншоты

Портрет города - Париж / Portrait of a City - Paris

Интереснейшее путешествие по одному из главных культурных центров мира городу Парижу.
Одни города славятся своим стилем и блеском, другие знамениты своей историей и культурой, но есть город, обладающий сразу всеми этими достоинствами и еще многими другими.
Романтичный Париж называют городом света, даже при коротком визите сюда вам гарантировано чудесное воспоминание об этой блистательной европейской столице. Здесь каждое здание, площадь, монумент могут рассказать свою захватывающую историю. Париж пережил и ужасы войн, и бурные дни революций, и славный период Империи.
В этом фильме вы посетите места, связанные с богатейшей историей города, увидите бульвары, парки, всемирно известные здания, музеи и непременно ощутите неповторимое очарование и изящество Парижа.

MediaInfo

ОбщееУникальный идентификатор : 182733794203397336899876755773050273637 (0x89793FA4F4C91B60BB18AFAF229B3F65)Полное имя : Portrait.of.a.City.2010.720p.HDTVRip.Rus.HDCLUB\Portrait.of.a.City-Paris.2010.720p.HDTVRip.Rus.HDCLUB.mkvФормат : MatroskaВерсия формата : Version 4 / Version 2Размер файла : 796 МбайтПродолжительность : 25 м.Общий поток : 4283 Кбит/секНазвание фильма : Create by DeTorquemada for HDCLUBДата кодирования : UTC 2015-05-09 08:23:36Программа кодирования : mkvmerge v7.8.0 ('River Man') 64bit built on Mar 27 2015 16:31:37Библиотека кодирования : libebml v1.3.1 + libmatroska v1.4.2
ВидеоИдентификатор : 1Формат : AVCФормат/Информация : Advanced Video CodecПрофиль формата : High@L4.1Параметр CABAC формата : ДаПараметр ReFrames формата : 7 кадровИдентификатор кодека : V_MPEG4/ISO/AVCПродолжительность : 25 м.Битрейт : 4006 Кбит/секШирина : 1280 пикселейВысота : 720 пикселейСоотношение сторон : 16:9Режим частоты кадров : ПостоянныйЧастота кадров : 25,000 кадров/секЦветовое пространство : YUVСубдискретизация насыщенности : 4:2:0Битовая глубина : 8 битТип развёртки : ПрогрессивнаяБит/(Пиксели*Кадры) : 0.174Размер потока : 744 Мбайт (94%)Заголовок : Портрет города - Париж / Portrait of a City - Paris (2010) - Release for HDCLUBБиблиотека кодирования : x264 core 146 r2538 121396cНастройки программы : cabac=1 / ref=7 / deblock=1:-3:-3 / analyse=0x3:0x113 / me=umh / subme=10 / psy=1 / psy_rd=1.00:0.00 / mixed_ref=1 / me_range=48 / chroma_me=1 / trellis=2 / 8x8dct=1 / cqm=0 / deadzone=21,11 / fast_pskip=1 / chroma_qp_offset=-2 / threads=6 / lookahead_threads=1 / sliced_threads=0 / nr=0 / decimate=1 / interlaced=0 / bluray_compat=0 / constrained_intra=0 / bframes=3 / b_pyramid=2 / b_adapt=2 / b_bias=0 / direct=1 / weightb=1 / open_gop=0 / weightp=2 / keyint=250 / keyint_min=25 / scenecut=40 / intra_refresh=0 / rc_lookahead=65 / rc=crf / mbtree=0 / crf=18.0 / qcomp=0.60 / qpmin=0 / qpmax=69 / qpstep=4 / vbv_maxrate=50000 / vbv_bufsize=62500 / crf_max=0.0 / nal_hrd=none / filler=0 / ip_ratio=1.40 / pb_ratio=1.30 / aq=1:0.80Язык : EnglishDefault : ДаForced : НетКоэффициенты матрицы : BT.709
АудиоИдентификатор : 2Формат : AC-3Формат/Информация : Audio Coding 3Расширение режима : CM (complete main)Параметр Endianness формата : BigИдентификатор кодека : A_AC3Продолжительность : 25 м.Вид битрейта : ПостоянныйБитрейт : 192 Кбит/секКаналы : 2 каналаРасположение каналов : Front: L RЧастота : 48,0 КГцБитовая глубина : 16 битМетод сжатия : С потерямиРазмер потока : 35,7 Мбайт (4%)Заголовок : 48KHz/16-bit, АС3, 2.0 (L,R) ch, 192 kbps - Одноголосый закадровый, студия "ТПО Ред Медиа"Язык : RussianDefault : ДаForced : Нет

Скриншоты

Портрет города - Рим / Portrait of a City - Rome

В каждом европейском городе есть сокровища, способные поразить путешественников, но в Риме, где следы древней цивилизации сочетаются с современным стилем жизни, можно увидеть чудеса, которым нет равных, от которых буквально захватывает дух.
Рим был некогда столицей самой могущественной империи мира, сейчас это один из прекраснейших городов земли. Здесь древнеримские храмы соседствуют с прелестными зданиями в стиле барокко, здесь великолепные статуи и фрески поражают воображение зрителей.
О великом прошлом этого города свидетельствуют и гигантские сооружения, вздымающиеся в небо, и изящные фонтаны и скульптуры, и грандиозные церкви, украшенные известнейшими художниками и архитекторами. Хотя Рим больше не столица империи, он по-прежнему имеет огромное значение для всего христианского мира.
Увидев в этом фильме его величественные соборы и музеи, его оживленные улицы и площади, ощутив красоту вечного города, вы поймете, почему тот, кто побывал здесь однажды, хочет возвращаться сюда снова и снова.

MediaInfo

ОбщееУникальный идентификатор : 228619790537131404313918479694103887521 (0xABFE91EEA2093C24B5AB9000E53CBEA1)Полное имя : Portrait.of.a.City.2010.720p.HDTVRip.Rus.HDCLUB\Portrait.of.a.City-Rome.2010.720p.HDTVRip.Rus.HDCLUB.mkvФормат : MatroskaВерсия формата : Version 4 / Version 2Размер файла : 694 МбайтПродолжительность : 25 м.Общий поток : 3734 Кбит/секНазвание фильма : Create by DeTorquemada for HDCLUBДата кодирования : UTC 2015-05-09 08:24:45Программа кодирования : mkvmerge v7.8.0 ('River Man') 64bit built on Mar 27 2015 16:31:37Библиотека кодирования : libebml v1.3.1 + libmatroska v1.4.2
ВидеоИдентификатор : 1Формат : AVCФормат/Информация : Advanced Video CodecПрофиль формата : High@L4.1Параметр CABAC формата : ДаПараметр ReFrames формата : 7 кадровИдентификатор кодека : V_MPEG4/ISO/AVCПродолжительность : 25 м.Битрейт : 3468 Кбит/секШирина : 1280 пикселейВысота : 720 пикселейСоотношение сторон : 16:9Режим частоты кадров : ПостоянныйЧастота кадров : 25,000 кадров/секЦветовое пространство : YUVСубдискретизация насыщенности : 4:2:0Битовая глубина : 8 битТип развёртки : ПрогрессивнаяБит/(Пиксели*Кадры) : 0.151Размер потока : 644 Мбайт (93%)Заголовок : Портрет города - Рим / Portrait of a City - Rome (2010) - Release for HDCLUBБиблиотека кодирования : x264 core 146 r2538 121396cНастройки программы : cabac=1 / ref=7 / deblock=1:-3:-3 / analyse=0x3:0x113 / me=umh / subme=10 / psy=1 / psy_rd=1.00:0.00 / mixed_ref=1 / me_range=48 / chroma_me=1 / trellis=2 / 8x8dct=1 / cqm=0 / deadzone=21,11 / fast_pskip=1 / chroma_qp_offset=-2 / threads=6 / lookahead_threads=1 / sliced_threads=0 / nr=0 / decimate=1 / interlaced=0 / bluray_compat=0 / constrained_intra=0 / bframes=3 / b_pyramid=2 / b_adapt=2 / b_bias=0 / direct=1 / weightb=1 / open_gop=0 / weightp=2 / keyint=250 / keyint_min=25 / scenecut=40 / intra_refresh=0 / rc_lookahead=65 / rc=crf / mbtree=0 / crf=18.0 / qcomp=0.60 / qpmin=0 / qpmax=69 / qpstep=4 / vbv_maxrate=50000 / vbv_bufsize=62500 / crf_max=0.0 / nal_hrd=none / filler=0 / ip_ratio=1.40 / pb_ratio=1.30 / aq=1:0.80Язык : EnglishDefault : ДаForced : НетКоэффициенты матрицы : BT.709
АудиоИдентификатор : 2Формат : AC-3Формат/Информация : Audio Coding 3Расширение режима : CM (complete main)Параметр Endianness формата : BigИдентификатор кодека : A_AC3Продолжительность : 25 м.Вид битрейта : ПостоянныйБитрейт : 192 Кбит/секКаналы : 2 каналаРасположение каналов : Front: L RЧастота : 48,0 КГцБитовая глубина : 16 битМетод сжатия : С потерямиРазмер потока : 35,7 Мбайт (5%)Заголовок : 48KHz/16-bit, АС3, 2.0 (L,R) ch, 192 kbps - Одноголосый закадровый, студия "ТПО Ред Медиа"Язык : RussianDefault : ДаForced : Нет

Скриншоты

Портрет города - Вена / Portrait of a City - Vienna

Каждый крупный город Европы имеет богатую историю, культурное наследие и достопримечательности, которые доставляют удовольствие туристам со всего мира. Но те, кто хочет видеть изысканную архитектуру, шедевры искусства и наслаждаться музыкой, едут в изумительный город, город-мечту - потрясающую Вену.
Здесь вы можете побывать в местах, которые помнят императоров и императриц, исследовать мощенные камнями улицы и великолепные дворцы города, бывшего некогда сердцем священной Римской империи. Вы увидите соборы, от величия которых захватывает дух, роскошную скульптуру и архитектурные сокровища, скрытые в лабиринтах старинных улиц.
Этот город буквально сияет изяществом и красотой, ясно, почему он был притягателен для художников, ученых, музыкантов со всей Европы и вдохновлял таких гениев как Моцарт и Штраус на создание их величайших шедевров.
В Вене множество красот, совершив путешествие по этому городу, вы прикоснетесь к его истории, культуре. У вас не останется сомнения в том, что этот город по праву считался когда-то культурной столицей Европы.

MediaInfo

ОбщееУникальный идентификатор : 218280876169439740811460189476598548522 (0xA4375E191450BEF482853ED61953882A)Полное имя : Portrait.of.a.City.2010.720p.HDTVRip.Rus.HDCLUB\Portrait.of.a.City-Vienna.2010.720p.HDTVRip.Rus.HDCLUB.mkvФормат : MatroskaВерсия формата : Version 4 / Version 2Размер файла : 737 МбайтПродолжительность : 25 м.Общий поток : 3967 Кбит/секНазвание фильма : Create by DeTorquemada for HDCLUBДата кодирования : UTC 2015-05-09 08:18:11Программа кодирования : mkvmerge v7.8.0 ('River Man') 64bit built on Mar 27 2015 16:31:37Библиотека кодирования : libebml v1.3.1 + libmatroska v1.4.2
ВидеоИдентификатор : 1Формат : AVCФормат/Информация : Advanced Video CodecПрофиль формата : High@L4.1Параметр CABAC формата : ДаПараметр ReFrames формата : 7 кадровИдентификатор кодека : V_MPEG4/ISO/AVCПродолжительность : 25 м.Битрейт : 3696 Кбит/секШирина : 1280 пикселейВысота : 720 пикселейСоотношение сторон : 16:9Режим частоты кадров : ПостоянныйЧастота кадров : 25,000 кадров/секЦветовое пространство : YUVСубдискретизация насыщенности : 4:2:0Битовая глубина : 8 битТип развёртки : ПрогрессивнаяБит/(Пиксели*Кадры) : 0.160Размер потока : 687 Мбайт (93%)Заголовок : Портрет города - Вена / Portrait of a City - Vienna (2010) - Release for HDCLUBБиблиотека кодирования : x264 core 146 r2538 121396cНастройки программы : cabac=1 / ref=7 / deblock=1:-3:-3 / analyse=0x3:0x113 / me=umh / subme=10 / psy=1 / psy_rd=1.00:0.00 / mixed_ref=1 / me_range=48 / chroma_me=1 / trellis=2 / 8x8dct=1 / cqm=0 / deadzone=21,11 / fast_pskip=1 / chroma_qp_offset=-2 / threads=6 / lookahead_threads=1 / sliced_threads=0 / nr=0 / decimate=1 / interlaced=0 / bluray_compat=0 / constrained_intra=0 / bframes=3 / b_pyramid=2 / b_adapt=2 / b_bias=0 / direct=1 / weightb=1 / open_gop=0 / weightp=2 / keyint=250 / keyint_min=25 / scenecut=40 / intra_refresh=0 / rc_lookahead=65 / rc=crf / mbtree=0 / crf=18.0 / qcomp=0.60 / qpmin=0 / qpmax=69 / qpstep=4 / vbv_maxrate=50000 / vbv_bufsize=62500 / crf_max=0.0 / nal_hrd=none / filler=0 / ip_ratio=1.40 / pb_ratio=1.30 / aq=1:0.80Язык : EnglishDefault : ДаForced : НетКоэффициенты матрицы : BT.709
АудиоИдентификатор : 2Формат : AC-3Формат/Информация : Audio Coding 3Расширение режима : CM (complete main)Параметр Endianness формата : BigИдентификатор кодека : A_AC3Продолжительность : 25 м.Вид битрейта : ПостоянныйБитрейт : 192 Кбит/секКаналы : 2 каналаРасположение каналов : Front: L RЧастота : 48,0 КГцБитовая глубина : 16 битМетод сжатия : С потерямиРазмер потока : 35,7 Мбайт (5%)Заголовок : 48KHz/16-bit, АС3, 2.0 (L,R) ch, 192 kbps - Одноголосый закадровый, студия "ТПО Ред Медиа"Язык : RussianDefault : ДаForced : Нет

Скриншоты

Портрет города - Мадрид / Portrait of a City - Madrid

Когда люди ищут новые интересные места для посещений, очаровательный город Мадрид зачастую оказывается в тени более популярных европейских центров туризма таких как Париж и Рим. Но найдите все, же время побродить по оживленным улицам и площадям этого очаровательного города, где вы поймете, что столица Испании такое, же средоточие национальной культуры и красоты исторических ценностей как и другие столицы. Сформированное за долгие столетия, канувшими в лета империями, это чудесное кружево из улиц и площадей, величественных дворцов, фонтанов и соборов соединяет в себе архитектуру прошлого и достижения архитектуры современной, удивляя и завораживая гостей столицы.
В этом фильме о Мадриде вы сможете ощутить интересное и бурное прошлое Испании и вскоре поймете, что этот город не лишен противоречий. Те, кто предпочитает знакомиться с красотами столицы, не сильно вдаваясь в историю, обнаружат, что мягкий, средиземноморский климат позволяет просто наслаждаться атмосферой Мадрида в какой-либо зеленой зоне. Вам также представится возможность полюбоваться сиянием ночного города с его театрами, манящими витринами магазинов, так как мы погуляем по современным районам столицы.

MediaInfo

ОбщееУникальный идентификатор : 235445167781401827546105303087573662759 (0xB1211702F9A656F1B013D7E593BC7C27)Полное имя : Portrait.of.a.City.2010.720p.HDTVRip.Rus.HDCLUB\Portrait.of.a.City-Madrid.2010.720p.HDTVRip.Rus.HDCLUB.mkvФормат : MatroskaВерсия формата : Version 4 / Version 2Размер файла : 920 МбайтПродолжительность : 25 м.Общий поток : 4948 Кбит/секНазвание фильма : Create by DeTorquemada for HDCLUBДата кодирования : UTC 2015-05-09 08:21:24Программа кодирования : mkvmerge v7.8.0 ('River Man') 64bit built on Mar 27 2015 16:31:37Библиотека кодирования : libebml v1.3.1 + libmatroska v1.4.2
ВидеоИдентификатор : 1Формат : AVCФормат/Информация : Advanced Video CodecПрофиль формата : High@L4.1Параметр CABAC формата : ДаПараметр ReFrames формата : 7 кадровИдентификатор кодека : V_MPEG4/ISO/AVCПродолжительность : 25 м.Битрейт : 4658 Кбит/секШирина : 1280 пикселейВысота : 720 пикселейСоотношение сторон : 16:9Режим частоты кадров : ПостоянныйЧастота кадров : 25,000 кадров/секЦветовое пространство : YUVСубдискретизация насыщенности : 4:2:0Битовая глубина : 8 битТип развёртки : ПрогрессивнаяБит/(Пиксели*Кадры) : 0.202Размер потока : 866 Мбайт (94%)Заголовок : Портрет города - Мадрид / Portrait of a City - Madrid (2010) - Release for HDCLUBБиблиотека кодирования : x264 core 146 r2538 121396cНастройки программы : cabac=1 / ref=7 / deblock=1:-3:-3 / analyse=0x3:0x113 / me=umh / subme=10 / psy=1 / psy_rd=1.00:0.00 / mixed_ref=1 / me_range=48 / chroma_me=1 / trellis=2 / 8x8dct=1 / cqm=0 / deadzone=21,11 / fast_pskip=1 / chroma_qp_offset=-2 / threads=6 / lookahead_threads=1 / sliced_threads=0 / nr=0 / decimate=1 / interlaced=0 / bluray_compat=0 / constrained_intra=0 / bframes=3 / b_pyramid=2 / b_adapt=2 / b_bias=0 / direct=1 / weightb=1 / open_gop=0 / weightp=2 / keyint=250 / keyint_min=25 / scenecut=40 / intra_refresh=0 / rc_lookahead=65 / rc=crf / mbtree=0 / crf=18.0 / qcomp=0.60 / qpmin=0 / qpmax=69 / qpstep=4 / vbv_maxrate=50000 / vbv_bufsize=62500 / crf_max=0.0 / nal_hrd=none / filler=0 / ip_ratio=1.40 / pb_ratio=1.30 / aq=1:0.80Язык : EnglishDefault : ДаForced : НетКоэффициенты матрицы : BT.709
АудиоИдентификатор : 2Формат : AC-3Формат/Информация : Audio Coding 3Расширение режима : CM (complete main)Параметр Endianness формата : BigИдентификатор кодека : A_AC3Продолжительность : 25 м.Вид битрейта : ПостоянныйБитрейт : 192 Кбит/секКаналы : 2 каналаРасположение каналов : Front: L RЧастота : 48,0 КГцБитовая глубина : 16 битМетод сжатия : С потерямиРазмер потока : 35,7 Мбайт (4%)Заголовок : 48KHz/16-bit, АС3, 2.0 (L,R) ch, 192 kbps - Одноголосый закадровый, студия "ТПО Ред Медиа"Язык : RussianDefault : ДаForced : Нет

Скриншоты

[Профиль] [ЛС]
Показать сообщения:    

Текущее время: Сегодня 20:24

Часовой пояс: GMT



Вы не можете начинать темы
Вы не можете отвечать на сообщения
Вы не можете редактировать свои сообщения
Вы не можете удалять свои сообщения
Вы не можете голосовать в опросах
Вы не можете прикреплять файлы к сообщениям
Вы не можете скачивать файлы