Поп-звезда: не переставай, не останавливайся / Popstar: Never Stop Never Stopping (2016) BDRemux 1080р от ExKinoRay | iTunes

 
Автор Сообщение

Russian Mafia ®

Пол:

Стаж: 1 год 8 месяцев

Сообщений: 4257



Награды: 10 (Подробнее)

Top Releaser 2 (Количество: 1) За внесенный вклад в развитие сайта (Количество: 1) Top Releaser 4 (Количество: 1)
Торрент-статистика

Создавать темы 14-Окт-2016 18:02

[Цитировать]

Информация о фильме
Название: Поп-звезда: Не переставай, не останавливайся
Оригинальное название: Popstar: Never Stop Never Stopping
Год выхода: 2016
Жанр: Комедия, музыка
Режиссер: Акива Шаффер, Йорма Такконе
В ролях: Энди Сэмберг, Йорма Такконе, Акива Шаффер, Сара Силверман, Тим Медоуз, Майя Рудольф, Джоан Кьюсак, Имоджен Путс, Крис Редд
О фильме:
С самого детства Коннер был без ума от музыки. Ещё ребёнком он с двумя лучшими друзьями создал группу «The Style Boyz». Группа стала очень популярной, и Коннор зазвездился, решив, что успех группы — исключительно его заслуга. Один друг детства вовсе перестал с ним разговаривать, другой работает у Коннера диджеем. А лучшие друзья суперзвезды — его менеджер, организатор вечеринок и прочие непонятные личности, которым бы только тусоваться с утра до ночи. И вот приближается великий день — выход нового сольного альбома. Но, как известно, чем выше ты взлетел, тем больнее будет падать.

Страна: США
Студия: Apatow Productions, Universal Pictures, Party Over Here
Продолжительность: 01:26:30
Перевод: Дублированный | iTunes
Файл
Кодек: MPEG-4
Качество: BDRemux 1080p
Видео: 1920x1080, 31.0 Mbit/s, 23.976 fps
Звук:
Аудио #01: 48 kHz, AC3, 2.0, 384 Kbps | Дублированный | iTunes |
Аудио #02: 48 kHz, DTS-HD MA, 5.1, 3639 kbps | Оригинал |
Субтитры: Русские (forced), английские

MI

General
Unique ID : 200761512954532799364899807851790963243 (0x970942CD7C530AB7B4ED610247AB922B)
Complete name : H:VideoPopstar.Never.Stop.Never.Stopping.2016.D.BDREMUX.1080p.ExKinoRay.mkv
Format : Matroska
Format version : Version 4 / Version 2
File size : 21.2 GiB
Duration : 1 h 26 min
Overall bit rate mode : Variable
Overall bit rate : 35.0 Mb/s
Movie name : build by ***селезень***
Encoded date : UTC 2016-10-14 16:52:51
Writing application : mkvmerge v8.3.0 ('Over the Horizon') 64bit
Writing library : libebml v1.3.1 + libmatroska v1.4.2
Video
ID : 1
Format : AVC
Format/Info : Advanced Video Codec
Format profile : High@L4.1
Format settings, CABAC : Yes
Format settings, ReFrames : 4 frames
Codec ID : V_MPEG4/ISO/AVC
Duration : 1 h 26 min
Bit rate mode : Variable
Bit rate : 31.0 Mb/s
Maximum bit rate : 35.0 Mb/s
Width : 1 920 pixels
Height : 1 080 pixels
Display aspect ratio : 16:9
Frame rate mode : Constant
Frame rate : 23.976 (24000/1001) FPS
Color space : YUV
Chroma subsampling : 4:2:0
Bit depth : 8 bits
Scan type : Progressive
Bits/(Pixel*Frame) : 0.624
Stream size : 18.7 GiB (89%)
Title : build by ***селезень***
Language : English
Default : Yes
Forced : No
Audio #1
ID : 2
Format : AC-3
Format/Info : Audio Coding 3
Mode extension : CM (complete main)
Format settings, Endianness : Big
Codec ID : A_AC3
Duration : 1 h 26 min
Bit rate mode : Constant
Bit rate : 384 kb/s
Channel(s) : 2 channels
Channel positions : Front: L R
Sampling rate : 48.0 kHz
Frame rate : 31.250 FPS (1536 spf)
Compression mode : Lossy
Stream size : 238 MiB (1%)
Title : iTunes
Language : Russian
Default : Yes
Forced : No
Audio #2
ID : 3
Format : DTS
Format/Info : Digital Theater Systems
Format profile : MA / Core
Mode : 16
Format settings, Endianness : Big
Codec ID : A_DTS
Duration : 1 h 26 min
Bit rate mode : Variable / Constant
Bit rate : 3 639 kb/s / 1 509 kb/s
Channel(s) : 6 channels
Channel positions : Front: L C R, Side: L R, LFE
Sampling rate : 48.0 kHz
Frame rate : 93.750 FPS (512 spf)
Bit depth : 24 bits
Compression mode : Lossless / Lossy
Stream size : 2.20 GiB (10%)
Title : Original
Language : English
Default : No
Forced : No
Text #1
ID : 4
Format : UTF-8
Codec ID : S_TEXT/UTF8
Codec ID/Info : UTF-8 Plain Text
Duration : 1 h 24 min
Bit rate : 33 b/s
Count of elements : 382
Stream size : 20.8 KiB (0%)
Title : Forced
Language : Russian
Default : Yes
Forced : No
Text #2
ID : 5
Format : UTF-8
Codec ID : S_TEXT/UTF8
Codec ID/Info : UTF-8 Plain Text
Duration : 1 h 25 min
Bit rate : 109 b/s
Count of elements : 1779
Stream size : 68.6 KiB (0%)
Title : Full
Language : English
Default : No
Forced : No
Text #3
ID : 6
Format : UTF-8
Codec ID : S_TEXT/UTF8
Codec ID/Info : UTF-8 Plain Text
Duration : 1 h 25 min
Bit rate : 117 b/s
Count of elements : 1918
Stream size : 73.9 KiB (0%)
Title : SDH
Language : English
Default : No
Forced : No
Menu #1
00:00:00.000 : en:00:00:00.000
00:05:54.479 : en:00:05:54.479
00:09:26.566 : en:00:09:26.566
00:14:38.169 : en:00:14:38.169
00:19:34.215 : en:00:19:34.215
00:24:49.279 : en:00:24:49.279
00:28:27.539 : en:00:28:27.539
00:31:45.070 : en:00:31:45.070
00:36:11.669 : en:00:36:11.669
00:40:15.580 : en:00:40:15.580
00:43:03.915 : en:00:43:03.915
00:46:44.093 : en:00:46:44.093
00:51:06.814 : en:00:51:06.814
00:54:38.775 : en:00:54:38.775
00:59:17.846 : en:00:59:17.846
01:05:15.161 : en:01:05:15.161
01:08:43.077 : en:01:08:43.077
01:13:13.598 : en:01:13:13.598
01:16:52.942 : en:01:16:52.942
01:22:29.736 : en:01:22:29.736
Menu #2
00:00:00.054 : en:00:00:00.054

Релиз от: Автор релиза:
[Профиль] [ЛС]
Кто просматривает тему:

Показать сообщения:    

Текущее время: Сегодня 09:11

Часовой пояс: GMT



Вы не можете начинать темы
Вы не можете отвечать на сообщения
Вы не можете редактировать свои сообщения
Вы не можете удалять свои сообщения
Вы не можете голосовать в опросах
Вы не можете прикреплять файлы к сообщениям
Вы не можете скачивать файлы