Поп-звезда: не переставай, не останавливайся / Popstar: Never Stop Never Stopping (2016) WEB-DLRip 1080р | L

 
Автор Сообщение

ODESSA ®

Пол:

Стаж: 1 год 7 месяцев

Сообщений: 421

Откуда: ODESSA



Награды: Нет

Торрент-статистика

Создавать темы 30-Авг-2016 06:49

[Цитировать]

Поп-звезда: не переставай, не останавливайся / Popstar: Never Stop Never Stopping
Страна: США
Производство: Universal Pictures, Perfect World Pictures, Party Over Here, Apatow Productions
Год выпуска: 2016
Жанр: комедия, музыка
Продолжительность: 01:26:25
Режиссеры: Акива Шаффер, Йорма Такконе
Авторы сценария: Энди Сэмберг, Акива Шаффер, Йорма Такконе
В ролях: Энди Сэмберг, Йорма Такконе, Акива Шаффер, Сара Силверман, Тим Медоуз, Майя Рудольф, Джоан Кьюсак, Имоджен Путс
Описание: С самого детства Коннер был без ума от музыки. Ещё ребёнком он с двумя лучшими друзьями создал группу «The Style Boyz». Группа стала очень популярной, и Коннор зазвездился, решив, что успех группы — исключительно его заслуга. Один друг детства вовсе перестал с ним разговаривать, другой работает у Коннера диджеем. А лучшие друзья суперзвёзды — его менеджер, организатор вечеринок и прочие непонятные личности, которым бы только тусоваться с утра до ночи. И вот приближается великий день — выход нового сольного альбома. Но, как известно, чем выше ты взлетел, тем больнее будет падать...

Перевод: Любительский (многоголосый, закадровый) | студия Paradox & Omskbird records
Субтитры: нет-Качество: WEB-DLRip 1080р
Формат: MKV
Видео кодек: AVC
Аудио кодек: АС3
Видео: 1916x796 (2.40:1), 23.976 fps, MPEG-4 AVC ~3 991 kbps avg
Аудио: 48.0 kHz, AC3 Dolby Digital, 2/0 (L,R) ch, ~384 kbps
Бюджет: $20 000 000
Дата премьеры (мир): 24 мая 2016

Media Info

General
Уникальный идентификатор : 243734088532565759579415347604414693400 (0xB75D7A5B68859F8A82049CD52BFE8018)
Полное имя : Popstar.Never.Stop.Never.Stopping.2016.P.WEB-DL.1O8Op_Paradox&OMSKBIRD.mkv
Формат : Matroska
Версия формата : Version 2
Размер файла : 2,69 Гбайт
Продолжительность : 1 ч. 26 м.
Режим общего битрейта : Постоянный
Общий поток : 4464 Кбит/сек
Дата кодирования : UTC 2016-08-27 21:15:23
Программа кодирования : mkvmerge v8.3.0 ('Over the Horizon') 64bit
Библиотека кодирования : libebml v1.3.1 + libmatroska v1.4.2
Видео
Идентификатор : 1
Формат : AVC
Формат/Информация : Advanced Video Codec
Профиль формата : High@L4.1
Параметр CABAC формата : Да
Параметр ReFrames формата : 5 кадров
Идентификатор кодека : V_MPEG4/ISO/AVC
Продолжительность : 1 ч. 26 м.
Вид битрейта : Постоянный
Битрейт : 3991 Кбит/сек
Номинальный битрейт : 4500 Кбит/сек
Ширина : 1916 пикселей
Высота : 796 пикселей
Соотношение сторон : 2,40:1
Режим частоты кадров : Постоянный
Частота кадров : 23,976 (24000/1001) кадра/сек
Стандарт вещания : Component
Цветовое пространство : YUV
Субдискретизация насыщенности : 4:2:0
Битовая глубина : 8 бит
Тип развёртки : Прогрессивная
Бит/(Пиксели*Кадры) : 0.109
Размер потока : 2,41 Гбайт (89%)
Default : Да
Forced : Нет
Цветовой диапазон : Limited
Основные цвета : BT.709
Характеристики трансфера : BT.709
Коэффициенты матрицы : BT.709
Аудио
Идентификатор : 2
Формат : AC-3
Формат/Информация : Audio Coding 3
Расширение режима : CM (complete main)
Параметр Endianness формата : Big
Идентификатор кодека : A_AC3
Продолжительность : 1 ч. 26 м.
Вид битрейта : Постоянный
Битрейт : 384 Кбит/сек
Каналы : 2 канала
Расположение каналов : Front: L R
Частота : 48,0 КГц
Частота кадров : 31,250 кадров/сек (1536 spf)
Метод сжатия : С потерями
Размер потока : 237 Мбайт (9%)
Default : Да
Forced : Нет

Скриншоты

[Профиль] [ЛС]
Кто просматривает тему:

Показать сообщения:    

Текущее время: Сегодня 21:27

Часовой пояс: GMT



Вы не можете начинать темы
Вы не можете отвечать на сообщения
Вы не можете редактировать свои сообщения
Вы не можете удалять свои сообщения
Вы не можете голосовать в опросах
Вы не можете прикреплять файлы к сообщениям
Вы не можете скачивать файлы