Поп-звезда: не переставай, не останавливайся / Popstar: Never Stop Never Stopping (2016) WEB-DLRip | L

 
Автор Сообщение

ODESSA ®

Пол:

Стаж: 1 год 7 месяцев

Сообщений: 391

Откуда: ODESSA



Награды: Нет

Торрент-статистика

Создавать темы 30-Авг-2016 06:45

[Цитировать]

Поп-звезда: не переставай, не останавливайся / Popstar: Never Stop Never Stopping
Страна: США
Производство: Universal Pictures, Perfect World Pictures, Party Over Here, Apatow Productions
Год выпуска: 2016
Жанр: комедия, музыка
Продолжительность: 01:26:25
Режиссеры: Акива Шаффер, Йорма Такконе
Авторы сценария: Энди Сэмберг, Акива Шаффер, Йорма Такконе
В ролях: Энди Сэмберг, Йорма Такконе, Акива Шаффер, Сара Силверман, Тим Медоуз, Майя Рудольф, Джоан Кьюсак, Имоджен Путс
Описание: С самого детства Коннер был без ума от музыки. Ещё ребёнком он с двумя лучшими друзьями создал группу «The Style Boyz». Группа стала очень популярной, и Коннор зазвездился, решив, что успех группы — исключительно его заслуга. Один друг детства вовсе перестал с ним разговаривать, другой работает у Коннера диджеем. А лучшие друзья суперзвёзды — его менеджер, организатор вечеринок и прочие непонятные личности, которым бы только тусоваться с утра до ночи. И вот приближается великий день — выход нового сольного альбома. Но, как известно, чем выше ты взлетел, тем больнее будет падать...

Перевод: Любительский (многоголосый, закадровый) | студия Paradox & Omskbird records
Субтитры: нет-Качество: WEB-DLRip
Формат: АVI
Видео кодек: XviD
Аудио кодек: АС3
Видео: 720x304 (2.35:1), 23.976 fps, XviD ~1 782 kbps avg
Аудио: 48.0 kHz, AC3 Dolby Digital, 2/0 (L,R) ch, ~384 kbps
Бюджет: $20 000 000
Дата премьеры (мир): 24 мая 2016

Media Info

General
Complete name : Popstar.Never.Stop.Never.Stopping.2016.P.WEB-DLRip.1.37GB_Paradox&OMSKBIRD.avi
Format : AVI
Format/Info : Audio Video Interleave
File size : 1.37 GiB
Duration : 1h 26mn
Overall bit rate : 2 264 Kbps
Writing application : VirtualDubMod 1.5.10.2 (build 2540/release)
Writing library : VirtualDubMod build 2540/release
Video #0
ID : 0
Format : MPEG-4 Visual
Format profile : Advanced Simple@L5
Format settings, BVOP : 2
Format settings, QPel : No
Format settings, GMC : No warppoints
Format settings, Matrix : Custom
Codec ID : XVID
Codec ID/Hint : XviD
Duration : 1h 26mn
Bit rate : 1 782 Kbps
Width : 720 pixels
Height : 304 pixels
Display aspect ratio : 2.35:1
Frame rate : 23.976 fps
Color space : YUV
Chroma subsampling : 4:2:0
Bit depth : 8 bits
Scan type : Progressive
Compression mode : Lossy
Bits/(Pixel*Frame) : 0.339
Stream size : 1.08 GiB (79%)
Writing library : XviD 1.2.1 (UTC 2008-12-04)
Audio #1
ID : 1
Format : AC-3
Format/Info : Audio Coding 3
Mode extension : CM (complete main)
Format settings, Endianness : Big
Codec ID : 2000
Duration : 1h 26mn
Bit rate mode : Constant
Bit rate : 384 Kbps
Channel(s) : 2 channels
Channel positions : Front: L R
Sampling rate : 48.0 KHz
Compression mode : Lossy
Stream size : 237 MiB (17%)
Alignment : Split accross interleaves

Скриншоты

[Профиль] [ЛС]
Кто просматривает тему:

Показать сообщения:    

Текущее время: Сегодня 07:05

Часовой пояс: GMT



Вы не можете начинать темы
Вы не можете отвечать на сообщения
Вы не можете редактировать свои сообщения
Вы не можете удалять свои сообщения
Вы не можете голосовать в опросах
Вы не можете прикреплять файлы к сообщениям
Вы не можете скачивать файлы