Попутчик / The Hitcher (Дэйв Мейерс / Dave Meyers) [2007 г., США, боевик, триллер, криминал, BDRip] Dub (R5) + MVO (Киномания) + AVO (Ю. Немахов) + Original (Eng) + Subs (Rus x2, Eng x2)

 
Автор Сообщение

TorrentFilm ®

Пол:

Стаж: 2 года

Сообщений: 7741



Награды: Нет

Торрент-статистика

Создавать темы 04-Фев-2015 00:00

[Цитировать]

Попутчик / The Hitcher-«Он снова на дороге...»-
Год выпуска: 2007
Страна: США
Жанр: боевик, триллер, криминал
Продолжительность: 01:24:13
Перевод: Профессиональный (полное дублирование) R5 + Профессиональный (многоголосый, закадровый) Киномания – отдельно + Авторский (одноголосый, закадровый) Ю.Немахов – отдельно + Оригинальная звуковая дорожка – отдельно
Субтитры: Русские [Full x2], Английские [Full, SDH] (*.srt)-Режиссер: Дэйв Мейерс / Dave Meyers-В ролях: Шон Бин (John Ryder), София Буш (Grace Andrews), Захари Найтон (Jim Halsey), Нил МакДонаф (Lt. Esteridge), Кайл Дэвис (Buford's Store Clerk), Скип О’Брайэн (Sheriff Harlan Bremmer Sr.), Трэвис Шульдт (Deputy Harlan Bremmer Jr.), Дэнни Болеро (Officer Edwards), Джеффри Хатчинсон (Young Father), Яра Мартинес (Beth), Лорен Кон (Marlene), Майкл Дж. Фишер (Transport Guard #2)-Описание: Молодая пара несется на автомобиле по бескрайним просторам Америки. Кругом темнота, дождь льет как из ведра и видно лишь небольшой участок шоссе, освещенный фарами. Внезапно перед ними возникает темный силуэт человека, голосующего на дороге! Парень хочет подвезти его, но девушка категорически против. Видимо, женская интуиция подсказывает ей, что это знакомство не сулит ничего хорошего. Ребята уезжают прочь. К сожалению, познакомиться с ним все-таки придется...
Попутчик оказывается безумным маньяком, который хладнокровно убивает всех, кто встречается на пути влюбленной пары. И самое страшное в этой ситуации - абсолютно непонятны его мотивы.-Автор рипа: Mr. Eko- -Качество: BDRip (BDRemux/1080p)
Формат: AVI
Видео: 720x304 (2.37:1), 23.976 fps, XviD build 66 ~2015 kbps avg, 0.38 bit/pixel
Аудио #1: 48 kHz, AC3 Dolby Digital, 3/2 (L,C,R,l,r) + LFE ch, ~448 kbps |DUB, R5|
Аудио #2: 48 kHz, AC3 Dolby Digital, 3/2 (L,C,R,l,r) + LFE ch, ~384 kbps |MVO, Киномания| (отдельным файлом)
Аудио #3: 48 kHz, AC3 Dolby Digital, 3/2 (L,C,R,l,r) + LFE ch, ~448 kbps |AVO, Ю.Немахов| (отдельным файлом)
Аудио #4: 48 kHz, AC3 Dolby Digital, 3/2 (L,C,R,l,r) + LFE ch, ~448 kbps |ENG| (отдельным файлом)
Размер: 1489.88 Mb (1/3 DVD5)
-

Дополнительные звуковые дорожки


Аудио #5: 48 kHz, AC3 Dolby Digital, 3/2 (L,C,R,l,r) + LFE ch, ~448 kbps |MVO| отдельно (disk.yandex.ru)
Аудио #6: 48 kHz, AC3 Dolby Digital, 3/2 (L,C,R,l,r) + LFE ch, ~448 kbps |DVO, UKR – 1+1| отдельно (disk.yandex.ru)

-

Знаете ли Вы, что...

  • Хотя имя Эрика Реда и указано в титрах, он не принимал участие в создании сценария.
  • Режиссёра Дэйва Мейерса можно увидеть на фотографии в водительских правах - его внешностью обладает настоящий Джон Райдер.
  • Рутгер Хауэр, игравший Джона Райдера в оригинальной версии фильма - «Попутчик» (1986), должен был появиться в камео, но в итоге отказался.
  • Шон Бин специально почти не общался с молодыми актёрами, чтобы дистанцироваться от них и лучше вжиться в образ маньяка-незнакомца.
  • Джим водит машину модели Oldsmobile 442.
  • В отеле Грейси смотрит фильм «Птицы» (1963).

-

MediaInfo

General
Complete name                            : C:\Downloads\Poputchik.2007.RUS.BDRip.XviD.AC3.-Mr.Eko\Poputchik.2007.RUS.BDRip.XviD.AC3.-Mr.Eko.avi
Format                                   : AVI
Format/Info                              : Audio Video Interleave
File size                                : 1.45 GiB
Duration                                 : 1h 24mn
Overall bit rate                         : 2 473 Kbps
Movie name                               : Попутчик / The Hitcher (2007)
Director                                 : Mr. Eko (BDRemux)
Writing application                      : VirtualDubMod 1.5.10.2 (build 2542/release)
Video
ID                                       : 0
Format                                   : MPEG-4 Visual
Format profile                           : Advanced Simple@L5
Format settings, BVOP                    : 2
Format settings, QPel                    : No
Format settings, GMC                     : No warppoints
Format settings, Matrix                  : Custom
Codec ID                                 : XVID
Codec ID/Hint                            : XviD
Duration                                 : 1h 24mn
Bit rate                                 : 2 016 Kbps
Width                                    : 720 pixels
Height                                   : 304 pixels
Display aspect ratio                     : 2.35:1
Frame rate                               : 23.976 fps
Color space                              : YUV
Chroma subsampling                       : 4:2:0
Bit depth                                : 8 bits
Scan type                                : Progressive
Compression mode                         : Lossy
Bits/(Pixel*Frame)                       : 0.384
Stream size                              : 1.19 GiB (82%)
Writing library                          : XviD 66
Audio
ID                                       : 1
Format                                   : AC-3
Format/Info                              : Audio Coding 3
Mode extension                           : CM (complete main)
Format settings, Endianness              : Big
Codec ID                                 : 2000
Duration                                 : 1h 24mn
Bit rate mode                            : Constant
Bit rate                                 : 448 Kbps
Channel(s)                               : 6 channels
Channel positions                        : Front: L C R, Side: L R, LFE
Sampling rate                            : 48.0 KHz
Bit depth                                : 16 bits
Compression mode                         : Lossy
Stream size                              : 270 MiB (18%)
Alignment                                : Split accross interleaves
Interleave, duration                     : 42 ms (1.00 video frame)
Interleave, preload duration             : 500 ms
Title                                    : Dub [Rus] R5

-

Сравнение

Сравнение с этой раздачей.-Сравнение с этой раздачей.-Сравнение с этой раздачей (другой перевод).

-

Скриншот c названием фильма


-

Скриншоты


-
[Профиль] [ЛС]

Создавать темы 06-Авг-2015 22:47 (спустя 6 месяцев 2 дня)

Топик был перенесен из форума Фильмы до 2014 года в форум Фильмы до 2012 года
sergej644
 
Показать сообщения:    

Текущее время: Сегодня 08:56

Часовой пояс: GMT



Вы не можете начинать темы
Вы не можете отвечать на сообщения
Вы не можете редактировать свои сообщения
Вы не можете удалять свои сообщения
Вы не можете голосовать в опросах
Вы не можете прикреплять файлы к сообщениям
Вы не можете скачивать файлы