Попал под раздачу / Catch Hell (Райан Филипп)[2014,Триллер, драма] BDRip-AVC | L1

 
Автор Сообщение

adeei ®

Пол:

Стаж: 1 год 8 месяцев

Сообщений: 63

Откуда: Россия Иваново



Награды: 3 (Подробнее)

Mega Seeder 3 (Количество: 1) Mega Seeder 2 (Количество: 1) Mega Seeder 1 (Количество: 1)
Торрент-статистика

Создавать темы 01-Май-2015 15:52

[Цитировать]

Попал под раздачу / Catch Hell Год выхода: 2014
Жанр: Триллер, драма
Страна: США
Студия: Palm-Star Entertainment, Twisted Pictures
Продолжительность: 01:37:10
Перевод: Любительский (одноголосый закадровый) den904
Субтитры: Английский-Режиссер: Райан Филипп / Ryan Phillippe-В ролях: Райан Филипп, Тиг Нотаро, Джеймс ДюМонт, Джойфул Дрейк, Стивен Луис Граш, Хаким Коллендер, Рамона Тайлер, Расс Руссо, Йен Барфорд, Хайди Брук Майерс...-Описание: Голливудский актер Ригон Пирс похищен бандитами по пути на работу в Шривпорте, штат Луизиана. Похитители пытают и шантажируют его, взламывают его аккаунт в Твиттере и угрожают выложить в сеть компрометирующие материалы…- -Качество: BDRip-AVC
Видео: AVC, 1024x576 (16:9), 23.976 fps, 1 771 Kbps (0.125 bit/pixel)
Аудио: AC-3, 48.0 KHz, 6 ch, 384 Kbps, CBR (Russian)-

MediaInfo:

Формат : Matroska
Версия формата : Version 2
Размер файла : 1,46 Гбайт
Продолжительность : 1 ч. 37 м.
Общий поток : 2155 Кбит/сек
Дата кодирования : UTC 2015-05-01 13:55:23
Программа кодирования : mkvmerge v5.3.0 ('I could have danced') built on Feb 9 2012 10:38:07
Библиотека кодирования : libebml v1.2.3 + libmatroska v1.3.0
Attachment : Yes
Видео
Идентификатор : 1
Формат : AVC
Формат/Информация : Advanced Video Codec
Профиль формата : High@L4.1
Параметр CABAC формата : Да
Параметр ReFrames формата : 10 кадров
Идентификатор кодека : V_MPEG4/ISO/AVC
Продолжительность : 1 ч. 37 м.
Битрейт : 1771 Кбит/сек
Ширина : 1024 пикселя
Высота : 576 пикселей
Соотношение сторон : 16:9
Режим частоты кадров : Постоянный
Частота кадров : 23,976 кадра/сек
Цветовое пространство : YUV
Субдискретизация насыщенности : 4:2:0
Битовая глубина : 8 бит
Тип развёртки : Прогрессивная
Бит/(Пиксели*Кадры) : 0.125
Размер потока : 1,17 Гбайт (80%)
Библиотека кодирования : x264 core 142 r2431 ac76440
Настройки программы : cabac=1 / ref=10 / deblock=1:-1:-1 / analyse=0x3:0x133 / me=umh / subme=10 / psy=1 / psy_rd=1.00:0.00 / mixed_ref=1 / me_range=32 / chroma_me=1 / trellis=2 / 8x8dct=1 / cqm=0 / deadzone=21,11 / fast_pskip=1 / chroma_qp_offset=-2 / threads=12 / lookahead_threads=1 / sliced_threads=0 / nr=0 / decimate=0 / interlaced=0 / bluray_compat=0 / constrained_intra=0 / bframes=6 / b_pyramid=2 / b_adapt=2 / b_bias=0 / direct=3 / weightb=1 / open_gop=0 / weightp=2 / keyint=240 / keyint_min=23 / scenecut=40 / intra_refresh=0 / rc=2pass / mbtree=0 / bitrate=1771 / ratetol=1.0 / qcomp=0.60 / qpmin=0 / qpmax=69 / qpstep=4 / cplxblur=20.0 / qblur=0.5 / ip_ratio=1.40 / pb_ratio=1.30 / aq=1:1.00
Язык : English
Default : Да
Forced : Нет
Аудио
Идентификатор : 2
Формат : AC-3
Формат/Информация : Audio Coding 3
Расширение режима : CM (complete main)
Параметр Endianness формата : Big
Идентификатор кодека : A_AC3
Продолжительность : 1 ч. 37 м.
Вид битрейта : Постоянный
Битрейт : 384 Кбит/сек
Каналы : 6 каналов
Расположение каналов : Front: L C R, Side: L R, LFE
Частота : 48,0 КГц
Битовая глубина : 16 бит
Метод сжатия : С потерями
Размер потока : 267 Мбайт (18%)
Заголовок : L1 | den904
Язык : Russian
Default : Да
Forced : Нет
Текст
Идентификатор : 3
Формат : UTF-8
Идентификатор кодека : S_TEXT/UTF8
Идентификатор кодека/Информация : UTF-8 Plain Text
Заголовок : Full
Язык : English
Default : Нет
Forced : Нет
Меню
00:00:00.000 : en:Chapter 01
00:11:10.002 : en:Chapter 02
00:20:52.668 : en:Chapter 03
00:33:05.733 : en:Chapter 04
00:43:55.758 : en:Chapter 05
00:50:55.635 : en:Chapter 06
00:57:30.655 : en:Chapter 07
01:06:18.599 : en:Chapter 08
01:16:37.050 : en:Chapter 09
01:23:08.316 : en:Chapter 10
01:29:11.721 : en:Chapter 11
01:33:35.151 : en:Chapter 12

Скриншоты


-
[Профиль] [ЛС]
Показать сообщения:    

Текущее время: Сегодня 14:02

Часовой пояс: GMT



Вы не можете начинать темы
Вы не можете отвечать на сообщения
Вы не можете редактировать свои сообщения
Вы не можете удалять свои сообщения
Вы не можете голосовать в опросах
Вы не можете прикреплять файлы к сообщениям
Вы не можете скачивать файлы