Помощники Гефеста (Борис Акулиничев) [1987, рисованный мультфильм, DVB]

 
Автор Сообщение

TorrentFilm ®

Пол:

Стаж: 2 года

Сообщений: 7741



Награды: Нет

Торрент-статистика

Создавать темы 02-Янв-2016 00:05

[Цитировать]

Помощники Гефеста
Жанр: рисованный мультфильм
Год выпуска: 1987
Продолжительность: 00:09:48
Режиссёр: Борис Акулиничев
Описание: познавательный мультфильм о свойствах железа ...
Доп. информация:

Релиз группы:
Трансляция спутникового канала: "Карусель"
Качество видео: DVB
Формат видео: MPEG-PS
Видео: MPEG2 Video, 720x576, 25 fps, 3600 kbps
Аудио: MPEG Audio, 2 сh, 48 kHz, 192 kbps

MediaInfo

D:\Помощники Гефеста. (1987)_DVB by SLuMeP.mpg.mpg
General
Complete name : D:\Помощники Гефеста. (1987)_DVB by SLuMeP.mpg.mpg
Format : MPEG-PS
File size : 274 MiB
Duration : 9mn 48s
Overall bit rate mode : Variable
Overall bit rate : 3 910 Kbps
Video #224
ID : 224 (0xE0)
Format : MPEG Video
Format version : Version 2
Format profile : Main@Main
Format settings, BVOP : Yes
Format settings, Matrix : Custom
Duration : 9mn 48s
Bit rate mode : Variable
Bit rate : 3 640 Kbps
Maximum bit rate : 5 000 Kbps
Width : 720 pixels
Height : 576 pixels
Display aspect ratio : 4:3
Frame rate : 25.000 fps
Standard : PAL
Color space : YUV
Chroma subsampling : 4:2:0
Bit depth : 8 bits
Scan type : Interlaced
Scan order : Top Field First
Compression mode : Lossy
Bits/(Pixel*Frame) : 0.351
Stream size : 256 MiB (93%)
Audio #192
ID : 192 (0xC0)
Format : MPEG Audio
Format version : Version 1
Format profile : Layer 2
Duration : 9mn 48s
Bit rate mode : Constant
Bit rate : 192 Kbps
Channel(s) : 2 channels
Sampling rate : 48.0 KHz
Compression mode : Lossy
Stream size : 13.5 MiB (5%)

Скриншоты

[Профиль] [ЛС]
Кто просматривает тему:

Форум Тема Автор Размер
Metal (Heavy Metal) Скорая Помощь - Детерminizm - 2015, MP3, 320 kbps достали все 109 MB
Программы [Офис] Помощник по математике v2.0.6 - 2.1.3 [Android 2.0+, RUS] TorrentFilm 8 MB
Компьютерная литература (Программирование) Берндт Г., Каинка Б. - Измерение, управление и регулирование с помощью макросов VBA в Word и Excel [2008, PDF, RUS] TorrentFilm 44 MB
Отечественная Классика Виктор Николаев – Живый в помощи. Записки афганца (2015) MP3 Swager 636 MB
Разная литература Владимир Васичкин | Исцеляющие точки организма. Самые надежные техники самопомощи (2015) [FB2, EPUB] достали все 6 MB
Отечественные мультфильмы Джин-помощник (Ж. Даненов, Г. Кистауов) [1982, Казахфильм, рисованная анимация, TeleSynch] TorrentFilm 297 MB
Медицина и здоровье Джозеф Зеккарди | Энциклопедия экстренной медицинской помощи (1999) [DJVU] sergej644 17 MB
Отечественные мультфильмы КОАПП. Комиссия особо активной помощи природе ... (18 серий) (М. Муат, Н. Лернер, А. Соловьев, М. Новогрудская и др.) [1984-1990 г., рисованный мультфильм, DVB] TorrentFilm 4.24 GB
Показать сообщения:    

Текущее время: Сегодня 10:44

Часовой пояс: GMT



Вы не можете начинать темы
Вы не можете отвечать на сообщения
Вы не можете редактировать свои сообщения
Вы не можете удалять свои сообщения
Вы не можете голосовать в опросах
Вы не можете прикреплять файлы к сообщениям
Вы не можете скачивать файлы