Поморская быль (Леонид Носырев) [1988, мультфильм, WEBRip]

 
Автор Сообщение

TorrentFilm ®

Пол:

Стаж: 1 год 11 месяцев

Сообщений: 7741



Награды: Нет

Торрент-статистика

Создавать темы 04-Дек-2014 11:15

[Цитировать]

Поморская быль
Страна: СССР
Жанр: мультфильм
Продолжительность: 00:10:05
Год выпуска: 1988
Перевод: Не требуется
Русские субтитры: нет
Режиссёр: Леонид Носырев
Роли озвучивали: Евгений Леонов, Зинаида Попова
Описание: По рассказу Бориса Шергина "Для увеселения"
Семпл: https://yadi.sk/i/m1evcfbLZ7GU7
Качество: WEBRip
Формат: AVI
Видео: XviD, 640х480, 25.000 fps, 901 Kbps
Аудио: MP3, 44.1 KHz, 1 channel, 64.0 Kbps
Субтитры: отсутствуют

Подробные технические данные

GeneralComplete name : C:\Users\Саша\Downloads\Видео\pomorskaya_byl.aviFormat : AVIFormat/Info : Audio Video InterleaveFile size : 70.4 MiBDuration : 10mn 5sOverall bit rate : 975 KbpsWriting application : VirtualDubMod 1.5.10.3 | www.virtualdub-fr.org || (build 2550/release)Writing library : VirtualDubMod build 2550/release
VideoID : 0Format : MPEG-4 VisualFormat profile : Advanced Simple@L5Format settings, BVOP : YesFormat settings, QPel : NoFormat settings, GMC : No warppointsFormat settings, Matrix : Default (H.263)Codec ID : XVIDCodec ID/Hint : XviDDuration : 10mn 5sBit rate : 901 KbpsWidth : 640 pixelsHeight : 480 pixelsDisplay aspect ratio : 4:3Frame rate : 25.000 fpsResolution : 8 bitsColorimetry : 4:2:0Scan type : ProgressiveBits/(Pixel*Frame) : 0.117Stream size : 65.1 MiB (92%)Writing library : XviD 1.2.1 (UTC 2008-12-04)
AudioID : 1Format : MPEG AudioFormat version : Version 1Format profile : Layer 3Codec ID : 55Codec ID/Hint : MP3Duration : 10mn 5sBit rate mode : ConstantBit rate : 64.0 KbpsChannel(s) : 1 channelSampling rate : 44.1 KHzStream size : 4.62 MiB (7%)Alignment : Split accross interleavesInterleave, duration : 40 ms (1.00 video frame)Interleave, preload duration : 500 msWriting library : LAME3.98rEncoding settings : -m m -V 4 -q 0 -lowpass 16.5 -b 64

Скриншоты




[Профиль] [ЛС]
Кто просматривает тему:

Показать сообщения:    

Текущее время: Сегодня 00:40

Часовой пояс: GMT



Вы не можете начинать темы
Вы не можете отвечать на сообщения
Вы не можете редактировать свои сообщения
Вы не можете удалять свои сообщения
Вы не можете голосовать в опросах
Вы не можете прикреплять файлы к сообщениям
Вы не можете скачивать файлы