Помню – не помню! (2016) WEB-DL 720p | iTunes

 
Автор Сообщение

достали все ®

Пол:

Стаж: 1 год 8 месяцев

Сообщений: 6545



Награды: 12 (Подробнее)

Mega Releaser 3 (Количество: 1) Mega Releaser 1 (Количество: 1) Mega Seeder 4 (Количество: 1)
Торрент-статистика

Создавать темы 28-Апр-2016 08:07

[Цитировать]

Информация о фильме
Название: Помню – не помню!
Год выхода: 2016
Жанр: комедия
Режиссер: Василий Ровенский
В ролях: Наталия Медведева, Полина Максимова, Константин Крюков, Людмила Артемьева, Анна Ардова, Александр Демидов, Сергей Бадюк, Вадим Демчог, Анна Хилькевич, Дмитрий Хрусталев
Слоган: «Почувствуй себя в чужом теле!»
О фильме: Живет себе на свете скромная девушка Алена, работает в библиотеке и мечтает сыграть Джульетту в самодеятельном театре. Она и представить себе не может, что буквально завтра ее жизнь кардинально изменится. Столкнувшись на улице с шикарной блондинкой, она теряет сознание и… приходит в себя в больнице… в чужом теле.

Выпущено: Россия / Кинофирма
Продолжительность: 01:15:30
Перевод: Оригинал [iTunes]
Файл
Качество: WEB-DL 720p
Формат: MKV
Видео: MPEG-4 AVC, 4000 Кb/s, 1280x536
Звук: AC3, 384 Kb/s (6 ch)
Субтитры: нет
Дополнительно: Сохранены оригинальные чаптеры

MediaInfo:

General
Unique ID : 184293841560932805080696390710923615827 (0x8AA5B3EAE2FB0716A1D64DDAB5DBDE53)
Complete name : D:ДИСК2.ФИЛЬМЫ СНГПомню – не помню! (2016)P0mH1y.He.P0mH1y.2016.O.WEB-DL.720p.mkv
Format : Matroska
Format version : Version 4 / Version 2
File size : 2.34 GiB
Duration : 1h 15mn
Overall bit rate : 4 437 Kbps
Encoded date : UTC 2016-04-27 19:05:02
Writing application : mkvmerge v8.3.0 ('Over the Horizon') 64bit
Writing library : libebml v1.3.1 + libmatroska v1.4.2
DURATION : 01:15:30.080000000
NUMBER_OF_FRAMES : 141565
NUMBER_OF_BYTES : 217443840
_STATISTICS_WRITING_APP : mkvmerge v8.3.0 ('Over the Horizon') 64bit
_STATISTICS_WRITING_DATE_UTC : 2016-04-27 19:05:02
_STATISTICS_TAGS : BPS DURATION NUMBER_OF_FRAMES NUMBER_OF_BYTES
Video
ID : 1
Format : AVC
Format/Info : Advanced Video Codec
Format profile : Main@L3.1
Format settings, CABAC : No
Format settings, ReFrames : 2 frames
Codec ID : V_MPEG4/ISO/AVC
Duration : 1h 15mn
Bit rate : 3 965 Kbps
Width : 1 280 pixels
Height : 536 pixels
Display aspect ratio : 2.40:1
Frame rate mode : Constant
Frame rate : 24.000 fps
Color space : YUV
Chroma subsampling : 4:2:0
Bit depth : 8 bits
Scan type : Progressive
Bits/(Pixel*Frame) : 0.241
Stream size : 2.09 GiB (89%)
Language : English
Default : Yes
Forced : No
Color range : Limited
Color primaries : BT.709
Transfer characteristics : BT.709
Matrix coefficients : BT.709
Audio
ID : 2
Format : AC-3
Format/Info : Audio Coding 3
Mode extension : CM (complete main)
Format settings, Endianness : Big
Codec ID : A_AC3
Duration : 1h 15mn
Bit rate mode : Constant
Bit rate : 384 Kbps
Channel(s) : 6 channels
Channel positions : Front: L C R, Side: L R, LFE
Sampling rate : 48.0 KHz
Compression mode : Lossy
Stream size : 207 MiB (9%)
Language : Russian
Default : Yes
Forced : No
Menu
00:00:00.000 : en:Глава 1
00:05:14.333 : en:Глава 2
00:11:59.749 : en:Глава 3
00:18:11.499 : en:Глава 4
00:23:58.582 : en:Глава 5
00:29:02.707 : en:Глава 6
00:34:57.665 : en:Глава 7
00:40:04.623 : en:Глава 8
00:45:29.623 : en:Глава 9
00:51:28.456 : en:Глава 10
00:56:31.831 : en:Глава 11
01:03:10.664 : en:Глава 12

Скриншоты

[Профиль] [ЛС]
Показать сообщения:    

Текущее время: Сегодня 16:30

Часовой пояс: GMT



Вы не можете начинать темы
Вы не можете отвечать на сообщения
Вы не можете редактировать свои сообщения
Вы не можете удалять свои сообщения
Вы не можете голосовать в опросах
Вы не можете прикреплять файлы к сообщениям
Вы не можете скачивать файлы