Помнить / Remember (2015) BDRip | Лицензия

 
Автор Сообщение

достали все ®

Пол:

Стаж: 1 год 8 месяцев

Сообщений: 6600



Награды: 12 (Подробнее)

Mega Releaser 3 (Количество: 1) Mega Seeder 2 (Количество: 1) Top Releaser 2 (Количество: 1)
Торрент-статистика

Создавать темы 02-Май-2016 02:56

[Цитировать]

Информация о фильме
Название: Помнить
Оригинальное название: Remember
Год выпуска: 2015
Жанр: Триллер, драма
Режиссер: Атом Эгоян
В ролях: Кристофер Пламмер, Дин Норрис, Мартин Ландау, Юрген Прохнов, Натали Крилл, Бруно Ганц, Генри Черни, Джеймс Кейд, Питер ДаКуна, София Уэллс
О фильме:
Многие годы Зев Гутман старается забыть все то, что произошло с ним в Освенциме. Прошло уже семьдесят лет: Зев обзавелся семьей, построил уютную и спокойную жизнь, и сейчас он находится на заслуженном отдыхе в доме престарелых. Но он так и не смог преодолеть ужас, пережитый в лагере смерти. Макс, его старый друг, вышел на след человека, мучившего их обоих в Освенциме. Преступник смог избежать правосудия, а теперь спокойно живет в Америке под именем Руди Курландера. Старые друзья решают отыскать его и самолично восстановить справедливость. Но Макс прикован к инвалидной коляске, поэтому завершить начатое должен Зев. Не сообщив ничего семье, Зев решается в одиночку совершить возмездие…

Выпущено: Канада, Германия
Студия: Serendipity Point Films, Egoli Tossell Film
Продолжительность: 01:34:22
Перевод: Дублированный (Лицензия)
Файл
Формат: AVI
Качество: BDRip
Видео: XviD, 688x384, 23.976 fps, 963 kbps
Звук: MP3, 2 ch, ~128 kbps

Скриншоты

MediaInfo:

Общее
Полное имя : Remember.2015.BDRip.745MB.MegaPeer.avi
Формат : AVI
Формат/Информация : Audio Video Interleave
Размер файла : 743 Мбайт
Продолжительность : 1 ч. 34 м.
Общий поток : 1101 Кбит/сек
Программа кодирования : VirtualDubMod 1.5.10.3 | www.virtualdub-fr.org || (build 2550/release)
Библиотека кодирования : VirtualDubMod build 2550/release
Видео
Идентификатор : 0
Формат : MPEG-4 Visual
Профиль формата : Advanced Simple@L5
Параметр BVOP формата : 1
Параметр QPel формата : Нет
Параметр GMC формата : Без точки перехода
Параметр матрицы формата : Выборочная
Идентификатор кодека : XVID
Идентификатор кодека/Подсказка : XviD
Продолжительность : 1 ч. 34 м.
Битрейт : 964 Кбит/сек
Ширина : 688 пикселей
Высота : 384 пикселя
Соотношение сторон : 16:9
Частота кадров : 23,976 (23976/1000) кадра/сек
Цветовое пространство : YUV
Субдискретизация насыщенности : 4:2:0
Битовая глубина : 8 бит
Тип развёртки : Прогрессивная
Метод сжатия : С потерями
Бит/(Пиксели*Кадры) : 0.152
Размер потока : 650 Мбайт (88%)
Библиотека кодирования : XviD 73
Аудио
Идентификатор : 1
Формат : MPEG Audio
Версия формата : Version 1
Профиль формата : Layer 3
Идентификатор кодека : 55
Идентификатор кодека/Подсказка : MP3
Продолжительность : 1 ч. 34 м.
Вид битрейта : Постоянный
Битрейт : 128 Кбит/сек
Каналы : 2 канала
Частота : 48,0 КГц
Метод сжатия : С потерями
Размер потока : 86,4 Мбайт (12%)
Выравнивание : Соединение по промежуткам
Продолжительность промежутка : 42 мс. (1,00 видеокадр)
Время предзагрузки промежутка : 504 мс.
Библиотека кодирования : LAME3.99r
Настройки программы : -m s -V 4 -q 2 -lowpass 17 -b 128
[Профиль] [ЛС]
Показать сообщения:    

Текущее время: Сегодня 05:20

Часовой пояс: GMT



Вы не можете начинать темы
Вы не можете отвечать на сообщения
Вы не можете редактировать свои сообщения
Вы не можете удалять свои сообщения
Вы не можете голосовать в опросах
Вы не можете прикреплять файлы к сообщениям
Вы не можете скачивать файлы