Пол Маккартни и Ринго Старр / Paul McCartney and Ringo Starr (2014) HDTV[1080i]

 
Автор Сообщение

sergej644 ®

Пол:

Стаж: 4 года 11 месяцев

Сообщений: 6046

Откуда: Soviet Union



Награды: Нет

Торрент-статистика

Создавать темы 27-Окт-2014 08:52

[Цитировать]

-Пол Маккартни и Ринго Старр / Paul McCartney and Ringo Starr (2014) HDTV[1080i]- Год выпуска: 2014
Жанр: Рок-концерт
Описание:
Концерт был записан 27 января 2014 г., показан на CBS-TV 9 фервраля 2014 г.
Режиссер: Ренато Базил
Актеры: Пол Маккартни, Ринго Старр
Продолжительность: 00:32:00
Качество видео: HDTV 1080i
Перевод: Отсутствует
Язык: Английский
Видеокодек: MPEG-2
Контейнер: ts
Видео: MPEG2 Video 1920x1080 29.97fps 15.4 Mbps
Аудиокодек: AC3 5.1
Аудио: Dolby AC3 48000Hz 6ch 384kbp

Треклист

Paul McCartney and Ringo Starr:
01 Sgt. Pepper's Lonely Hearts Club Band
02 With A Little Help From My Friends
03 Hey Jude
Paul McCartney:
01 Birthday
02 Get Back
03 I Saw Her Standing There
Ringo Starr:
01 Matchbox
02 Boys
03 Yellow Submarine

MediaInfo

The Beatles - The Night That Changed America - A Grammy Salute - Paul McCartney and Ringo Starr\Paul McCartney and Ringo Starr 2014-01-27 Grammy Salute to The Beatles.ts
General #1
ID : 1 (0x1)
Complete name : The Beatles - The Night That Changed America - A Grammy Salute - Paul McCartney and Ringo Starr\Paul McCartney and Ringo Starr 2014-01-27 Grammy Salute to The Beatles.ts
Format : MPEG-TS
File size : 1.35 GiB
Duration : 11mn 37s
Overall bit rate : 16.7 Mbps
Video #49
ID : 49 (0x31)
Menu ID : 1 (0x1)
Format : MPEG Video
Format version : Version 2
Format profile : Main@High
Format settings, BVOP : Yes
Format settings, Matrix : Default
Format settings, GOP : M=4, N=30
Codec ID : 2
Duration : 11mn 37s
Bit rate mode : Variable
Bit rate : 15.4 Mbps
Nominal bit rate : 80.0 Mbps
Width : 1 920 pixels
Height : 1 080 pixels
Display aspect ratio : 16:9
Frame rate : 29.970 fps
Color space : YUV
Chroma subsampling : 4:2:0
Bit depth : 8 bits
Scan type : Interlaced
Scan order : Top Field First
Compression mode : Lossy
Bits/(Pixel*Frame) : 0.249
Stream size : 1.25 GiB (93%)
Audio #52
ID : 52 (0x34)
Menu ID : 1 (0x1)
Format : AC-3
Format/Info : Audio Coding 3
Mode extension : CM (complete main)
Codec ID : 129
Duration : 11mn 37s
Bit rate mode : Constant
Bit rate : 384 Kbps
Channel(s) : 6 channels
Channel positions : Front: L C R, Side: L R, LFE
Sampling rate : 48.0 KHz
Bit depth : 16 bits
Compression mode : Lossy
Video delay : 6ms
Stream size : 31.9 MiB (2%)
Language : English
Text #49-608-1
ID : 49 (0x31)608-1
Menu ID : 1 (0x1)
Format : EIA-608
Muxing mode : A/53 / DTVCC Transport
Muxing mode, more info : Muxed in Video #1
Duration : 11mn 37s
Stream size : 0.00 Byte (0%)
Text #49-1
ID : 49 (0x31)1
Menu ID : 1 (0x1)
Format : EIA-708
Muxing mode : A/53 / DTVCC Transport
Muxing mode, more info : Muxed in Video #1
Duration : 11mn 37s
Stream size : 0.00 Byte (0%)

Доп. информация

Большой респект meloman67 за релиз
Скриншоты:

Время раздачи: круглосуточно
[Профиль] [ЛС]
Кто просматривает тему:

Показать сообщения:    

Текущее время: Сегодня 03:22

Часовой пояс: GMT



Вы не можете начинать темы
Вы не можете отвечать на сообщения
Вы не можете редактировать свои сообщения
Вы не можете удалять свои сообщения
Вы не можете голосовать в опросах
Вы не можете прикреплять файлы к сообщениям
Вы не можете скачивать файлы