Полуночный экспресс / The Midnight Meat Train (Рюхэй Китамура) [2008 г., ужасы, триллер, BDRip 1080p] [DUB] | Director's Cut

 
Автор Сообщение

Bathory ®

Пол:

Стаж: 9 месяцев

Сообщений: 169



Награды: 3 (Подробнее)

Друг (Количество: 1) За внесенный вклад в развитие сайта (Количество: 1) Girls (Количество: 1)
Торрент-статистика

Создавать темы 04-Июн-2016 13:06

[Цитировать]

Полуночный экспресс / The Midnight Meat Train- Информация о фильме
Название: Полуночный экспресс
Оригинальное название: The Midnight Meat Train
Год выхода: 2008
Жанр: ужасы, триллер
Режиссер: Рюхэй Китамура
В ролях: Брэдли Купер, Лесли Бибб, Брук Шилдс, Винни Джонс, Роджер Барт, Тони Кёрран, Барбара Ив Харрис, Питер Джекобсон, Стефани Мейс, Тед Рэйми
О фильме:
Молодой фотограф криминальной хроники Леон Кауфман получает выгодное предложение от одной Нью-Йоркской галереи — показать публике свои работы. В своих фотографиях он должен отразить «все экстремальное и темное», что есть в городе…

Страна: США
Студия: Lakeshore Entertainment, Lions Gate Films, Midnight Picture Show
Продолжительность: 01:42:57
Перевод: Профессиональный (полное дублирование)
Файл
Кодек: AVC
Качество: BDRip 1080p
Видео: 1912x816, 11,8 Mbps, 23,976 fps, 0,315 Bits/(Pixel*Frame)
Звук:
1. AC3, 48 kHz, 6 ch, 448 kbps - RUS (DUB)
2. AC3, 48 kHz, 6 ch, 448 kbps - ENG (Original)
Субтитры:
1. Русские форсированные (для мест без перевода)
2. Русские (полные)
3. Английские

MI

General
Unique ID : 231594806765401926471885923376662631474 (0xAE3B898E8D113E5393432F463CECD432)
Complete name : F:\Midnight.Meat.Train.2008.RUS.ENG.BDRip1080p_by_Bathory.mkv
Format : Matroska
Format version : Version 4 / Version 2
File size : 9.13 GiB
Duration : 1h 42mn
Overall bit rate : 12.7 Mbps
Encoded date : UTC 2016-06-04 12:14:43
Writing application : mkvmerge v8.6.1 ('Flying') 64bit
Writing library : libebml v1.3.3 + libmatroska v1.4.4
DURATION : 01:32:34.883000000
NUMBER_OF_FRAMES : 1213
NUMBER_OF_BYTES : 4778940
_STATISTICS_WRITING_APP : mkvmerge v8.6.1 ('Flying') 64bit
_STATISTICS_WRITING_DATE_UTC : 2016-06-04 12:14:43
_STATISTICS_TAGS : BPS DURATION NUMBER_OF_FRAMES NUMBER_OF_BYTES
Video
ID : 1
Format : AVC
Format/Info : Advanced Video Codec
Format profile : High@L4.1
Format settings, CABAC : Yes
Format settings, ReFrames : 4 frames
Codec ID : V_MPEG4/ISO/AVC
Duration : 1h 42mn
Bit rate : 11.8 Mbps
Width : 1 912 pixels
Height : 816 pixels
Display aspect ratio : 2.35:1
Frame rate mode : Constant
Frame rate : 23.976 fps
Color space : YUV
Chroma subsampling : 4:2:0
Bit depth : 8 bits
Scan type : Progressive
Bits/(Pixel*Frame) : 0.315
Stream size : 8.30 GiB (91%)
Writing library : x264 core 148 r2692 64f4e24
Encoding settings : cabac=1 / ref=4 / deblock=1:-3:-3 / analyse=0x3:0x133 / me=umh / subme=11 / psy=1 / psy_rd=1.10:0.15 / mixed_ref=1 / me_range=32 / chroma_me=1 / trellis=2 / 8x8dct=1 / cqm=0 / deadzone=21,11 / fast_pskip=0 / chroma_qp_offset=-3 / threads=12 / lookahead_threads=2 / sliced_threads=0 / nr=0 / decimate=0 / interlaced=0 / bluray_compat=0 / constrained_intra=0 / bframes=9 / b_pyramid=2 / b_adapt=2 / b_bias=0 / direct=3 / weightb=1 / open_gop=0 / weightp=2 / keyint=240 / keyint_min=23 / scenecut=0 / intra_refresh=0 / rc_lookahead=60 / rc=2pass / mbtree=1 / bitrate=11784 / ratetol=1.0 / qcomp=0.70 / qpmin=0 / qpmax=51 / qpstep=4 / cplxblur=15.0 / qblur=0.5 / vbv_maxrate=50000 / vbv_bufsize=62500 / nal_hrd=none / filler=0 / ip_ratio=1.40 / aq=2:1.00
Default : Yes
Forced : No
Audio #1
ID : 2
Format : AC-3
Format/Info : Audio Coding 3
Mode extension : CM (complete main)
Format settings, Endianness : Big
Codec ID : A_AC3
Duration : 1h 42mn
Bit rate mode : Constant
Bit rate : 448 Kbps
Channel(s) : 6 channels
Channel positions : Front: L C R, Side: L R, LFE
Sampling rate : 48.0 KHz
Bit depth : 16 bits
Compression mode : Lossy
Stream size : 330 MiB (4%)
Language : Russian
Default : Yes
Forced : No
Audio #2
ID : 3
Format : AC-3
Format/Info : Audio Coding 3
Mode extension : CM (complete main)
Format settings, Endianness : Big
Codec ID : A_AC3
Duration : 1h 42mn
Bit rate mode : Constant
Bit rate : 448 Kbps
Channel(s) : 6 channels
Channel positions : Front: L C R, Side: L R, LFE
Sampling rate : 48.0 KHz
Bit depth : 16 bits
Compression mode : Lossy
Stream size : 330 MiB (4%)
Language : English
Default : No
Forced : No
Text #1
ID : 4
Format : UTF-8
Codec ID : S_TEXT/UTF8
Codec ID/Info : UTF-8 Plain Text
Title : Forced Rus
Language : Russian
Default : Yes
Forced : No
Text #2
ID : 5
Format : PGS
Muxing mode : zlib
Codec ID : S_HDMV/PGS
Codec ID/Info : The same subtitle format used on BDs/HD-DVDs
Title : Full Rus
Language : Russian
Default : No
Forced : No
Text #3
ID : 6
Format : PGS
Muxing mode : zlib
Codec ID : S_HDMV/PGS
Codec ID/Info : The same subtitle format used on BDs/HD-DVDs
Language : English
Default : No
Forced : No
Text #4
ID : 7
Format : PGS
Muxing mode : zlib
Codec ID : S_HDMV/PGS
Codec ID/Info : The same subtitle format used on BDs/HD-DVDs
Language : English
Default : No
Forced : No

Скриншоты

Релиз от:
Автор рипа: Bathory
[Профиль] [ЛС]
Показать сообщения:    

Текущее время: Сегодня 18:36

Часовой пояс: GMT



Вы не можете начинать темы
Вы не можете отвечать на сообщения
Вы не можете редактировать свои сообщения
Вы не можете удалять свои сообщения
Вы не можете голосовать в опросах
Вы не можете прикреплять файлы к сообщениям
Вы не можете скачивать файлы