Полуночный экспресс / The Midnight Meat Train (Рюхэй Китамура) [2008 г., ужасы, триллер, BDRip-AVC] [DUB] | Director's Cut

 
Автор Сообщение

Bathory ®

Пол:

Стаж: 8 месяцев 28 дней

Сообщений: 168



Награды: 3 (Подробнее)

Girls (Количество: 1) Друг (Количество: 1) За внесенный вклад в развитие сайта (Количество: 1)
Торрент-статистика

Создавать темы 08-Апр-2016 17:57

[Цитировать]

Полуночный экспресс / The Midnight Meat Train-
Информация о фильме
Название: Полуночный экспресс
Оригинальное название: The Midnight Meat Train
Год выхода: 2008
Жанр: ужасы, триллер
Режиссер: Рюхэй Китамура
В ролях: Брэдли Купер, Лесли Бибб, Брук Шилдс, Винни Джонс, Роджер Барт, Тони Кёрран, Барбара Ив Харрис, Питер Джекобсон, Стефани Мейс, Тед Рэйми
О фильме:
Молодой фотограф криминальной хроники Леон Кауфман получает выгодное предложение от одной Нью-Йоркской галереи — показать публике свои работы. В своих фотографиях он должен отразить «все экстремальное и темное», что есть в городе…

Страна: США
Студия: Lakeshore Entertainment, Lions Gate Films, Midnight Picture Show
Продолжительность: 01:42:57
Перевод: Профессиональный (полное дублирование)
Файл
Кодек: AVC
Качество: BDRip-AVC
Видео: 1032x440, 2579 kbps, 23,976 fps, 0,237 Bits/(Pixel*Frame)
Звук:
AC3, 48 kHz, 6 ch, 448 kbps - RUS (DUB)
AC3, 48 kHz, 6 ch, 448 kbps - ENG (Original)
Субтитры:
1. Русские (для мест без перевода)
2. Русские (полные)
3. Английские

MI

General
Unique ID : 229232481543667546669127090706406915145 (0xAC7491EE58758841A0C857A90E373C49)
Complete name : E:\Midnight.Meat.Train.2008.BDRip_by_Bathory.mkv
Format : Matroska
Format version : Version 4 / Version 2
File size : 2.18 GiB
Duration : 1h 42mn
Overall bit rate : 3 032 Kbps
Encoded date : UTC 2016-04-08 17:18:59
Writing application : mkvmerge v8.6.1 ('Flying') 64bit
Writing library : libebml v1.3.3 + libmatroska v1.4.4
DURATION : 01:32:34.883000000
NUMBER_OF_FRAMES : 1213
NUMBER_OF_BYTES : 4778940
_STATISTICS_WRITING_APP : mkvmerge v8.6.1 ('Flying') 64bit
_STATISTICS_WRITING_DATE_UTC : 2016-04-08 17:18:59
_STATISTICS_TAGS : BPS DURATION NUMBER_OF_FRAMES NUMBER_OF_BYTES
Video
ID : 1
Format : AVC
Format/Info : Advanced Video Codec
Format profile : High@L4.1
Format settings, CABAC : Yes
Format settings, ReFrames : 12 frames
Codec ID : V_MPEG4/ISO/AVC
Duration : 1h 42mn
Bit rate : 2 579 Kbps
Width : 1 032 pixels
Height : 440 pixels
Display aspect ratio : 2.35:1
Frame rate mode : Constant
Frame rate : 23.976 fps
Color space : YUV
Chroma subsampling : 4:2:0
Bit depth : 8 bits
Scan type : Progressive
Bits/(Pixel*Frame) : 0.237
Stream size : 1.81 GiB (83%)
Writing library : x264 core 148 r2665 a01e339
Encoding settings : cabac=1 / ref=12 / deblock=1:-3:-2 / analyse=0x3:0x133 / me=umh / subme=11 / psy=1 / psy_rd=1.10:0.10 / mixed_ref=1 / me_range=32 / chroma_me=1 / trellis=2 / 8x8dct=1 / cqm=0 / deadzone=21,11 / fast_pskip=0 / chroma_qp_offset=-3 / threads=12 / lookahead_threads=3 / sliced_threads=0 / nr=0 / decimate=0 / interlaced=0 / bluray_compat=0 / constrained_intra=0 / bframes=14 / b_pyramid=2 / b_adapt=2 / b_bias=0 / direct=3 / weightb=1 / open_gop=0 / weightp=2 / keyint=240 / keyint_min=23 / scenecut=0 / intra_refresh=0 / rc_lookahead=60 / rc=2pass / mbtree=1 / bitrate=2579 / ratetol=1.0 / qcomp=0.70 / qpmin=0 / qpmax=69 / qpstep=4 / cplxblur=15.0 / qblur=0.5 / vbv_maxrate=50000 / vbv_bufsize=62500 / nal_hrd=none / filler=0 / ip_ratio=1.40 / aq=2:1.00
Default : Yes
Forced : No
Audio
ID : 2
Format : AC-3
Format/Info : Audio Coding 3
Mode extension : CM (complete main)
Format settings, Endianness : Big
Codec ID : A_AC3
Duration : 1h 42mn
Bit rate mode : Constant
Bit rate : 448 Kbps
Channel(s) : 6 channels
Channel positions : Front: L C R, Side: L R, LFE
Sampling rate : 48.0 KHz
Bit depth : 16 bits
Compression mode : Lossy
Stream size : 330 MiB (15%)
Language : Russian
Default : Yes
Forced : No
Text #1
ID : 3
Format : PGS
Muxing mode : zlib
Codec ID : S_HDMV/PGS
Codec ID/Info : The same subtitle format used on BDs/HD-DVDs
Title : Uncut
Language : Russian
Default : Yes
Forced : Yes
Text #2
ID : 4
Format : PGS
Muxing mode : zlib
Codec ID : S_HDMV/PGS
Codec ID/Info : The same subtitle format used on BDs/HD-DVDs
Title : Full
Language : Russian
Default : No
Forced : No
Text #3
ID : 5
Format : PGS
Muxing mode : zlib
Codec ID : S_HDMV/PGS
Codec ID/Info : The same subtitle format used on BDs/HD-DVDs
Language : English
Default : No
Forced : No
Text #4
ID : 6
Format : PGS
Muxing mode : zlib
Codec ID : S_HDMV/PGS
Codec ID/Info : The same subtitle format used on BDs/HD-DVDs
Language : English
Default : No
Forced : No

Скриншоты

Автор рипа: Bathory
[Профиль] [ЛС]

Создавать темы 12-Июн-2016 08:50 (спустя 2 месяца 3 дня)

Топик был перенесен из форума Фильмы 2011 года в форум Фильмы 2006-2008 года
Russian Mafia
 
Показать сообщения:    

Текущее время: Сегодня 12:31

Часовой пояс: GMT



Вы не можете начинать темы
Вы не можете отвечать на сообщения
Вы не можете редактировать свои сообщения
Вы не можете удалять свои сообщения
Вы не можете голосовать в опросах
Вы не можете прикреплять файлы к сообщениям
Вы не можете скачивать файлы