Полуночные колокола / Campanadas a medianoche (1965) BDRemux 1080p | Р

 
Автор Сообщение

Russian Mafia ®

Пол:

Стаж: 1 год 8 месяцев

Сообщений: 4247



Награды: 10 (Подробнее)

Mega Seeder 1 (Количество: 1) Mega Seeder 2 (Количество: 1) Mega Seeder 5 (Количество: 1)
Торрент-статистика

Создавать темы 22-Сен-2016 07:22

[Цитировать]

Полуночные колокола / Falstaff / Campanadas a medianoche
Страна: Франция Испания Швейцария
Производство: Alpine Films, Internacional Films
Год выпуска: 1965
Жанр: драма, комедия, военный, история
Продолжительность: 01:56:24
Режиссер: Орсон Уэллс
Авторы сценария: Орсон Уэллс, Уильям Шекспир, Рафаэль Холиншед
В ролях: Орсон Уэллс, Жанна Моро, Маргарет Разерфорд, Джон Гилгуд, Марина Влади, Вальтер Кьяри, Майкл Элдридж, Хулио Пенья, Тони Бекли
Описание: В фильме показана Англия времён феодальных междоусобиц в правление Генриха IV. В центре повествования — весёлый похабник, выпивоха и хвастун Джон Фальстаф, попадающий в истории и совращающий с пути истинного наследника престола...

Перевод: Профессиональный (многоголосый, закадровый) | СВ-Дубль
Субтитры: русские, английские-Качество: BDRemux 1080p
Формат: МКV
Видео кодек: AVC
Аудио кодек: АС3 | FLAC
Видео: 1920x1080 (16:9), 23.976 fps, MPEG-4 AVC ~35.4 Мbps avg
Аудио №1: 48.0 kHz, AC3 Dolby Digital, 2/0 (L,R) ch, ~192 kbps | RUS
Аудио №2: 48.0 kHz, Free Lossless Audio Codec, 1 ch, ~603 kbps | ENG
Аудио №3: 48.0 kHz, AC3 Dolby Digital, 1 ch, ~192 kbps | ENG / Commentary
Формат субтитров: UTF-8 Plain Text
Дата премьеры (мир): 22 декабря 1965-
Призы Каннского кинофестиваля, 1966 год
» Технический гран-при
» Юбилейный приз в честь 20-летия Каннского фестиваля (Орсон Уэллс)

BDRemux Info

Unique ID : 209068171297866040171299439963585077792 (0x9D4910ADCE96266AAF6EFCAF97D76220)
Format : Matroska
Format version : Version 2
File size : 29.6 GiB
Duration : 1h 56mn
Overall bit rate mode : Variable
Overall bit rate : 36.4 Mbps
Writing application : mkvmerge v5.0.1 ('Es ist Sommer') built on Nov 6 2011 16:23:40
Writing library : libebml v1.2.2 + libmatroska v1.3.0
Video
ID : 1
Format : AVC
Format/Info : Advanced Video Codec
Format profile : High@L4.1
Format settings, CABAC : Yes
Format settings, ReFrames : 4 frames
Codec ID : V_MPEG4/ISO/AVC
Duration : 1h 56mn
Bit rate mode : Variable
Maximum bit rate : 37.0 Mbps
Width : 1 920 pixels
Height : 1 080 pixels
Display aspect ratio : 16:9
Frame rate mode : Constant
Frame rate : 23.976 fps
Color space : YUV
Chroma subsampling : 4:2:0
Bit depth : 8 bits
Scan type : Progressive
Language : English
Default : Yes
Forced : No
Audio #1
ID : 2
Format : AC-3
Format/Info : Audio Coding 3
Mode extension : CM (complete main)
Format settings, Endianness : Big
Codec ID : A_AC3
Duration : 1h 56mn
Bit rate mode : Constant
Bit rate : 192 Kbps
Channel(s) : 2 channels
Channel positions : Front: L R
Sampling rate : 48.0 KHz
Bit depth : 16 bits
Compression mode : Lossy
Stream size : 160 MiB (1%)
Title : СВ-Дубль
Language : Russian
Default : Yes
Forced : No
Audio #2
ID : 3
Format : FLAC
Format/Info : Free Lossless Audio Codec
Codec ID : A_FLAC
Duration : 1h 56mn
Bit rate mode : Variable
Channel(s) : 1 channel
Sampling rate : 48.0 KHz
Bit depth : 24 bits
Writing library : libFLAC 1.2.1 (UTC 2007-09-17)
Language : English
Default : No
Forced : No
Audio #3
ID : 4
Format : AC-3
Format/Info : Audio Coding 3
Mode extension : CM (complete main)
Format settings, Endianness : Big
Codec ID : A_AC3
Duration : 1h 56mn
Bit rate mode : Constant
Bit rate : 192 Kbps
Channel(s) : 1 channel
Channel positions : Front: C
Sampling rate : 48.0 KHz
Bit depth : 16 bits
Compression mode : Lossy
Stream size : 160 MiB (1%)
Title : комментарии киноведа
Language : English
Default : No
Forced : No
Text #1
ID : 5
Format : UTF-8
Codec ID : S_TEXT/UTF8
Codec ID/Info : UTF-8 Plain Text
Language : Russian
Default : No
Forced : No
Text #2
ID : 6
Format : UTF-8
Codec ID : S_TEXT/UTF8
Codec ID/Info : UTF-8 Plain Text
Language : English
Default : No
Forced : No
Menu
00:00:00.000 : en:"Jesus, the days we have seen!"
00:01:51.569 : en:Opening credits
00:03:01.598 : en:"King Richard II was murdered..."
00:07:23.985 : en:"How now, who picked me pocket?"
00:13:22.051 : en:"Our plot is a good plot, as ever was laid"
00:17:18.996 : en:"Zounds, will they not rob us?"
00:20:34.149 : en:"Can no man tell me of my unthrifty son?"
00:22:09.202 : en:"A plague on all cowards!"
00:27:46.081 : en:"Shall we have a play extempore?"
00:33:28.339 : en:"Call in the sheriff"
00:37:51.477 : en:"For thou hast lost thy princely privilege"
00:41:34.408 : en:"Methinks your soldiers are exceeding poor"
00:46:04.011 : en:"Justice Shallow?"
00:52:13.421 : en:"We offer fair. Take it advisedly."
00:56:45.276 : en:"Saint George and England!"
01:02:20.570 : en:"Thou hast robbed me of my youth"
01:06:25.523 : en:"Thus ever did rebellion find rebuke"
01:11:05.344 : en:"Uneasy lies the head that wears a crown"
01:17:08.790 : en:"Pistol!"
01:22:08.965 : en:"I did not think thou wast within hearing"
01:30:28.506 : en:"Where is the crown?"
01:39:52.486 : en:"What, is the old king dead?"
01:43:22.154 : en:"I speak to thee, my heart!"
01:49:57.340 : en:"He's in Arthur's bosom"
01:55:02.186 : en:End credits

Скриншоты

[Профиль] [ЛС]
Показать сообщения:    

Текущее время: Сегодня 02:16

Часовой пояс: GMT



Вы не можете начинать темы
Вы не можете отвечать на сообщения
Вы не можете редактировать свои сообщения
Вы не можете удалять свои сообщения
Вы не можете голосовать в опросах
Вы не можете прикреплять файлы к сообщениям
Вы не можете скачивать файлы