Полуночная жара / In the Heat of the Night (1967) BDRip 1080p | Р, Р2, А

 
Автор Сообщение

Russian Mafia ®

Пол:

Стаж: 1 год 8 месяцев

Сообщений: 4257



Награды: 10 (Подробнее)

Top Releaser 2 (Количество: 1) Mega Seeder 1 (Количество: 1) Mega Seeder 3 (Количество: 1)
Торрент-статистика

Создавать темы 23-Сен-2016 07:48

[Цитировать]

Полуночная жара / In the Heat of the Night
Страна: США
Производство: The Mirisch Corporation
Год выпуска: 1967
Жанр: драма, криминал, детектив
Продолжительность: 01:50:04
Режиссер: Норман Джуисон
Авторы сценария: Стёрлинг Силлифант, Джон Болл
В ролях: Сидни Пуатье, Род Стайгер, Уоррен Оутс, Ли Грант, Ларри Гейтс, Джеймс Паттерсон, Уильям Шэллерт, Би Ричардс, Питер Уитни
Описание: В шестидесятые годы в Америке к неграм относились совсем по-другому, нежели сейчас. Расовые предрассудки существовали во всех слоях общества, даже среди полицейских. Обстоятельства складываются так, что белый шериф из провинциального городка вынужден объединить усилия в расследовании чудовищно жестокого убийства с чернокожим детективом из Филадельфии. Их взаимная неприязнь на расовой почве подкрепляется абсолютным несходством характеров и различными методами ведения следствия. Таким образом, расследование преступления превращается в личную разборку между крутыми полицейскими. Но чтобы выйти на след таинственного убийцы им нужно научиться работать вместе...

Перевод: Профессиональный (многоголосый) | SomeWax + Профессиональный (двухголосый) | НТВ+ + Авторский (одноголосый) | Пётр Карцев
Субтитры: русские, английские-Качество: BDRip 1080p
Формат: MKV
Видео кодек: AVC
Аудио кодек: АС3 | DTS
Видео: 1920x1038 (1.85:1), 23.976 fps, MPEG-4 AVC ~16.5 Мbps avg
Аудио №1: 48.0 kHz, AC3 Dolby Digital, 2/0 (L,R) ch, ~192 kbps | RUS / MVO / SomeWax
Аудио №2: 48.0 kHz, AC3 Dolby Digital, 2/0 (L,R) ch, ~192 kbps | RUS / DVO / НТВ+
Аудио №3: 48.0 kHz, AC3 Dolby Digital, 2/0 (L,R) ch, ~192 kbps | RUS / AVO / Пётр Карцев
Аудио №4: 48.0 kHz, Digital Theater Systems, 3/2 (L,C,R,l,r) + LFE ch, ~1509 kbps | ENG
Аудио №5: 48.0 kHz, AC3 Dolby Digital, 1 ch, ~192 kbps | ENG / Commentary
Формат субтитров: UTF-8 Plain Text
Бюджет: $2 000 000
Дата премьеры (мир): 2 августа 1967-
Премия Оскар, 1968 год
» Лучший фильм
» Лучший звук
» Лучший монтаж
» Лучший адаптированный сценарий
» Лучшая мужская роль / Род Стайгер

Media Info

Unique ID : 207988815593704827495473437574308352339 (0x9C793055858379409BE6A067E934D153)
Complete name : In.the.Heat.of.the.Night.1967.BDRip.1080p.mkv
Format : Matroska
Format version : Version 4 / Version 2
File size : 14.4 GiB
Duration : 1h 50mn
Overall bit rate : 18.8 Mbps
Encoded date : UTC 2014-10-23 03:52:37
Writing application : mkvmerge v6.9.1 ('Blue Panther') 64bit built on Apr 18 2014 18:23:38
Writing library : libebml v1.3.0 + libmatroska v1.4.1
Video
ID : 1
Format : AVC
Format/Info : Advanced Video Codec
Format profile : High@L4.1
Format settings, CABAC : Yes
Format settings, ReFrames : 4 frames
Codec ID : V_MPEG4/ISO/AVC
Duration : 1h 50mn
Bit rate : 16.5 Mbps
Width : 1 920 pixels
Height : 1 038 pixels
Display aspect ratio : 1.85:1
Frame rate mode : Constant
Frame rate : 23.976 fps
Color space : YUV
Chroma subsampling : 4:2:0
Bit depth : 8 bits
Scan type : Progressive
Bits/(Pixel*Frame) : 0.345
Stream size : 12.4 GiB (86%)
Title : MPEG-4AVC@High Profile L4.1, 24/1.001 fps @ 16500 kbps
Writing library : x264 core 140 r2377 1ca7bb9
Encoding settings : cabac=1 / ref=4 / deblock=1:-3:-3 / analyse=0x3:0x133 / me=umh / subme=11 / psy=1 / psy_rd=1.00:0.00 / mixed_ref=1 / me_range=32 / chroma_me=1 / trellis=2 / 8x8dct=1 / cqm=0 / deadzone=21,11 / fast_pskip=0 / chroma_qp_offset=-2 / threads=24 / lookahead_threads=2 / sliced_threads=0 / nr=0 / decimate=0 / interlaced=0 / bluray_compat=0 / constrained_intra=0 / bframes=6 / b_pyramid=2 / b_adapt=2 / b_bias=0 / direct=3 / weightb=1 / open_gop=0 / weightp=2 / keyint=240 / keyint_min=23 / scenecut=40 / intra_refresh=0 / rc_lookahead=60 / rc=2pass / mbtree=1 / bitrate=16500 / ratetol=1.0 / qcomp=0.60 / qpmin=0 / qpmax=69 / qpstep=4 / cplxblur=20.0 / qblur=0.5 / vbv_maxrate=45000 / vbv_bufsize=45000 / nal_hrd=none / filler=0 / ip_ratio=1.40 / aq=1:0.60
Language : English
Default : Yes
Forced : No
Audio #1
ID : 2
Format : AC-3
Format/Info : Audio Coding 3
Mode extension : CM (complete main)
Format settings, Endianness : Big
Codec ID : A_AC3
Duration : 1h 50mn
Bit rate mode : Constant
Bit rate : 192 Kbps
Channel count : 2 channels
Channel positions : Front: L R
Sampling rate : 48.0 KHz
Bit depth : 16 bits
Compression mode : Lossy
Stream size : 151 MiB (1%)
Title : MVO (SomeWax)
Language : Russian
Default : Yes
Forced : No
Audio #2
ID : 3
Format : AC-3
Format/Info : Audio Coding 3
Mode extension : CM (complete main)
Format settings, Endianness : Big
Codec ID : A_AC3
Duration : 1h 50mn
Bit rate mode : Constant
Bit rate : 192 Kbps
Channel count : 2 channels
Channel positions : Front: L R
Sampling rate : 48.0 KHz
Bit depth : 16 bits
Compression mode : Lossy
Stream size : 151 MiB (1%)
Title : DVO (NTV+)
Language : Russian
Default : No
Forced : No
Audio #3
ID : 4
Format : AC-3
Format/Info : Audio Coding 3
Mode extension : CM (complete main)
Format settings, Endianness : Big
Codec ID : A_AC3
Duration : 1h 50mn
Bit rate mode : Constant
Bit rate : 192 Kbps
Channel count : 2 channels
Channel positions : Front: L R
Sampling rate : 48.0 KHz
Bit depth : 16 bits
Compression mode : Lossy
Stream size : 151 MiB (1%)
Title : AVO (Karcev)
Language : Russian
Default : No
Forced : No
Audio #4
ID : 5
Format : DTS
Format/Info : Digital Theater Systems
Mode : 16
Format settings, Endianness : Big
Codec ID : A_DTS
Duration : 1h 50mn
Bit rate mode : Constant
Bit rate : 1 509 Kbps
Channel count : 6 channels
Channel positions : Front: L C R, Side: L R, LFE
Sampling rate : 48.0 KHz
Bit depth : 24 bits
Compression mode : Lossy
Stream size : 1.16 GiB (8%)
Language : English
Default : No
Forced : No
Audio #5
ID : 6
Format : AC-3
Format/Info : Audio Coding 3
Mode extension : CM (complete main)
Format settings, Endianness : Big
Codec ID : A_AC3
Duration : 1h 50mn
Bit rate mode : Constant
Bit rate : 192 Kbps
Channel count : 1 channel
Channel positions : Front: C
Sampling rate : 48.0 KHz
Bit depth : 16 bits
Compression mode : Lossy
Stream size : 151 MiB (1%)
Title : English Dolby Digital Audio 1.0 @ 192 kbps Commentary
Language : English
Default : No
Forced : No
Text #1
ID : 7
Format : UTF-8
Codec ID : S_TEXT/UTF8
Codec ID/Info : UTF-8 Plain Text
Language : Russian
Default : No
Forced : No
Text #2
ID : 8
Format : UTF-8
Codec ID : S_TEXT/UTF8
Codec ID/Info : UTF-8 Plain Text
Language : English
Default : No
Forced : No
Menu
00:00:00.000 : en:00:00:00.000
00:02:47.584 : en:00:02:47.584
00:06:41.192 : en:00:06:41.192
00:09:10.008 : en:00:09:10.008
00:12:25.453 : en:00:12:25.453
00:21:44.345 : en:00:21:44.345
00:25:58.599 : en:00:25:58.599
00:30:16.690 : en:00:30:16.690
00:33:26.379 : en:00:33:26.379
00:36:27.519 : en:00:36:27.519
00:39:23.695 : en:00:39:23.695
00:44:06.185 : en:00:44:06.185
00:46:29.453 : en:00:46:29.453
00:50:15.054 : en:00:50:15.054
00:53:24.827 : en:00:53:24.827
00:55:53.392 : en:00:55:53.392
00:58:41.643 : en:00:58:41.643
01:06:02.000 : en:01:06:02.000
01:09:32.377 : en:01:09:32.377
01:12:53.953 : en:01:12:53.953
01:18:55.022 : en:01:18:55.022
01:20:08.721 : en:01:20:08.721
01:24:55.465 : en:01:24:55.465
01:31:56.428 : en:01:31:56.428
01:35:14.959 : en:01:35:14.959
01:39:30.089 : en:01:39:30.089
01:43:34.041 : en:01:43:34.041
01:47:30.819 : en:01:47:30.819

Скриншоты

[Профиль] [ЛС]
Показать сообщения:    

Текущее время: Сегодня 03:24

Часовой пояс: GMT



Вы не можете начинать темы
Вы не можете отвечать на сообщения
Вы не можете редактировать свои сообщения
Вы не можете удалять свои сообщения
Вы не можете голосовать в опросах
Вы не можете прикреплять файлы к сообщениям
Вы не можете скачивать файлы