Полтора шпиона / Central Intelligence (2016) BDRip | Лицензия

 
Автор Сообщение

Russian Mafia ®

Пол:

Стаж: 1 год 8 месяцев

Сообщений: 4257



Награды: 10 (Подробнее)

За внесенный вклад в развитие сайта (Количество: 1) Mega Seeder 3 (Количество: 1) Mega Seeder 5 (Количество: 1)
Торрент-статистика

Создавать темы 05-Окт-2016 06:57

[Цитировать]

«Они попробуют спасти мир: малыш Харт и скала Джонсон»
Информация о фильме
Название: Полтора шпиона
Оригинальное название: Central Intelligence
Год выхода: 2016
Жанр: Боевик, комедия, криминал
Режиссер: Роусон Маршалл Тёрбер
Роли озвучивают: Дуэйн Джонсон, Кевин Харт, Эми Райан, Даниэль Николет, Джейсон Бейтмен, Аарон Пол, Райан Хансен, Тим Гриффин, Тимоти Джон Смит
О фильме:
От лайка в соцсети до спасения мира — один шаг. Сегодня ты френдишь бывшего одноклассника, а завтра — он тащит тебя под пули. Кто ж знал, что заядлый любитель пончиков превратится в похожего на скалу супершпиона.

Страна: США
Студия: New Line Cinema, Bluegrass Films, Principato-Young Entertainment
Продолжительность: 01:47:38
Перевод: Профессиональный (полное дублирование)[Лицензия]
Файл
Качество: BDRip (исх. CENTRAL_INTELLIGENCE_TC_REMUX_HDCLUB)
Формат: AVI
Кодек: XviD
Видео: 720x304 (2,35:1), 23,976 fps, XviD ~1990 kbps avg, 0.379 bit/pixel
Аудио: 48 kHz, AC3, 6 ch, ~448.00 kbps avg | русский | Профессиональный (полное дублирование)[Лицензия]
Аудио: 48 kHz, AC3, 6 ch, ~448.00 kbps avg | английский | Оригинал
Субтитры:
Внешние:
1# Русские (форсированные)
2# Русские (полные)
3# Английские (Full)
4# Английские (SDH)
Семпл

Инфо-файл

Общее
Полное имя : D:Central.Intelligence.2016.D.BDRipCentral.Intelligence.2016.D.BDRip.avi
Формат : AVI
Формат/Информация : Audio Video Interleave
Профиль формата : OpenDML
Размер файла : 2,18 Гбайт
Продолжительность : 1 ч. 47 м.
Общий поток : 2904 Кбит/сек
Программа кодирования : VirtualDubMod 1.5.10.3 (build 2550/release)
Библиотека кодирования : VirtualDubMod build 2550/release
Видео
Идентификатор : 0
Формат : MPEG-4 Visual
Профиль формата : Advanced Simple@L5
Параметр BVOP формата : 1
Параметр QPel формата : Нет
Параметр GMC формата : Без точки перехода
Параметр матрицы формата : Выборочная
Идентификатор кодека : XVID
Идентификатор кодека/Подсказка : XviD
Продолжительность : 1 ч. 47 м.
Битрейт : 1990 Кбит/сек
Ширина : 720 пикселей
Высота : 304 пикселя
Соотношение сторон : 2,35:1
Частота кадров : 23,976 кадра/сек
Цветовое пространство : YUV
Субдискретизация насыщенности : 4:2:0
Битовая глубина : 8 бит
Тип развёртки : Прогрессивная
Метод сжатия : С потерями
Бит/(Пиксели*Кадры) : 0.379
Размер потока : 1,50 Гбайт (69%)
Библиотека кодирования : XviD 65
Аудио #1
Идентификатор : 1
Формат : AC-3
Формат/Информация : Audio Coding 3
Расширение режима : CM (complete main)
Параметр Endianness формата : Big
Идентификатор кодека : 2000
Продолжительность : 1 ч. 47 м.
Вид битрейта : Постоянный
Битрейт : 448 Кбит/сек
Каналы : 6 каналов
Расположение каналов : Front: L C R, Side: L R, LFE
Частота : 48,0 КГц
Метод сжатия : С потерями
Размер потока : 345 Мбайт (15%)
Выравнивание : Разделение по промежуткам
Продолжительность промежутка : 42 мс. (1,00 видеокадр)
Время предзагрузки промежутка : 500 мс.
Аудио #2
Идентификатор : 2
Формат : AC-3
Формат/Информация : Audio Coding 3
Расширение режима : CM (complete main)
Параметр Endianness формата : Big
Идентификатор кодека : 2000
Продолжительность : 1 ч. 47 м.
Вид битрейта : Постоянный
Битрейт : 448 Кбит/сек
Каналы : 6 каналов
Расположение каналов : Front: L C R, Side: L R, LFE
Частота : 48,0 КГц
Метод сжатия : С потерями
Размер потока : 345 Мбайт (15%)
Выравнивание : Разделение по промежуткам
Продолжительность промежутка : 42 мс. (1,00 видеокадр)
Время предзагрузки промежутка : 500 мс.

Скриншоты

[Профиль] [ЛС]
Показать сообщения:    

Текущее время: Сегодня 13:04

Часовой пояс: GMT



Вы не можете начинать темы
Вы не можете отвечать на сообщения
Вы не можете редактировать свои сообщения
Вы не можете удалять свои сообщения
Вы не можете голосовать в опросах
Вы не можете прикреплять файлы к сообщениям
Вы не можете скачивать файлы