Полтергейст / Poltergeist (Гил Кинан / Gil Kenan) [2015, Ужасы, триллер, BDRip-AVC] [Расширенная версия / Extended cut] Dub + Original (Eng) + Subs (Rus, Ukr, Eng)

 
Автор Сообщение

TorrentFilm ®

Пол:

Стаж: 1 год 11 месяцев

Сообщений: 7741



Награды: Нет

Торрент-статистика

Создавать темы 29-Сен-2015 00:08

[Цитировать]

-Полтергейст / Poltergeist- Год выпуска: 2015
Страна: США, Канада
Жанр: ужасы, триллер
Продолжительность: 01:40:53
Перевод: Профессиональный (полное дублирование) |Лицензия|
Русские субтитры: есть-Режиссер: Гил Кинан / Gil Kenan-В ролях: Сэм Рокуэлл (Eric Bowen), Розмари ДеУитт (Amy Bowen), Саксон Шарбино (Kendra Bowen), Кайл Кэтлетт (Griffin Bowen), Кеннеди Клементс (Madison Bowen), Джаред Харрис (Carrigan Burke), Джейн Адамс (Dr. Brooke Powell), Сьюзэн Хэйард (Sophie), Николас Браун (Boyd), Карен Ивани (Mrs. Stoller), Патрик Гэрроу (Mr. Stoller), Дуглас Маклеод (Older Gentleman)-Описание: Когда страшные призраки забирают младшую дочь, семье приходится объединиться, чтобы спасти ее...-Релиз от: -Автор рипа: potroks-Качество: BDRip-AVC [Blu-ray Disc | 1080p | HDCLUB]
Формат: MKV
Видео кодек: H.264
Аудио кодек: AC3
Видео: 1152x480 (2.40:1), 2202 kbps, 23,976 fps, 0,166 bit/pixel
Аудио №1: AC3 / 5.1 / 48 kHz / 448 kbps / 16 bit | RUS
Аудио №2: AC3 / 5.1 / 48 kHz / 448 kbps / 16 bit | ENG
Субтитры: русские, украинские, английские (Full + SDH + SDH-Colored)
- -

MediaInfo

Poltergeyst.2015.Extended.DUAL.BDRip-AVC.-HELLYWOOD.mkv
Format : Matroska
Format version : Version 4 / Version 2
File size : 2.18 GiB
Duration : 1h 40mn
Overall bit rate : 3 098 Kbps
Movie name : Poltergeist (2015) [EXTENDED] - HELLYWOOD
Encoded date : UTC 2015-09-19 18:57:32
Writing application : mkvmerge v5.9.0 ('On The Loose') built on Dec 15 2012 16:39:58
Writing library : libebml v1.3.0 + libmatroska v1.4.0
Video
ID : 1
Format : AVC
Format/Info : Advanced Video Codec
Format profile : High@L4.1
Format settings, CABAC : Yes
Format settings, ReFrames : 11 frames
Codec ID : V_MPEG4/ISO/AVC
Duration : 1h 40mn
Bit rate : 2 202 Kbps
Width : 1 152 pixels
Height : 480 pixels
Display aspect ratio : 2.40:1
Frame rate mode : Constant
Frame rate : 23.976 fps
Color space : YUV
Chroma subsampling : 4:2:0
Bit depth : 8 bits
Scan type : Progressive
Bits/(Pixel*Frame) : 0.166
Stream size : 1.51 GiB (69%)
Title : potroks
Writing library : x264 core 148 r2597M e86f3a1
Encoding settings : cabac=1 / ref=11 / deblock=1:-2:-2 / analyse=0x3:0x133 / me=umh / subme=11 / psy=1 / psy_rd=1.00:0.10 / mixed_ref=1 / me_range=48 / chroma_me=1 / trellis=2 / 8x8dct=1 / cqm=0 / deadzone=21,11 / fast_pskip=0 / chroma_qp_offset=-3 / threads=10 / lookahead_threads=2 / sliced_threads=0 / nr=0 / decimate=1 / interlaced=0 / bluray_compat=0 / constrained_intra=0 / bframes=12 / b_pyramid=2 / b_adapt=2 / b_bias=0 / direct=3 / weightb=1 / open_gop=0 / weightp=2 / keyint=250 / keyint_min=23 / scenecut=40 / intra_refresh=0 / rc=2pass / mbtree=0 / bitrate=2202 / ratetol=1.0 / qcomp=0.70 / qpmin=0 / qpmax=69 / qpstep=4 / cplxblur=20.0 / qblur=0.5 / ip_ratio=1.40 / pb_ratio=1.30 / aq=1:0.80
Language : English
Default : Yes
Forced : No
Audio #1
ID : 2
Format : AC-3
Format/Info : Audio Coding 3
Mode extension : CM (complete main)
Format settings, Endianness : Big
Codec ID : A_AC3
Duration : 1h 40mn
Bit rate mode : Constant
Bit rate : 448 Kbps
Channel(s) : 6 channels
Channel positions : Front: L C R, Side: L R, LFE
Sampling rate : 48.0 KHz
Bit depth : 16 bits
Compression mode : Lossy
Delay relative to video : 27ms
Stream size : 323 MiB (14%)
Title : Dub | DD 5.1 @ 448 kbps - Blu-Ray CEE
Language : Russian
Default : Yes
Forced : No
Audio #2
ID : 3
Format : AC-3
Format/Info : Audio Coding 3
Mode extension : CM (complete main)
Format settings, Endianness : Big
Codec ID : A_AC3
Duration : 1h 40mn
Bit rate mode : Constant
Bit rate : 448 Kbps
Channel(s) : 6 channels
Channel positions : Front: L C R, Side: L R, LFE
Sampling rate : 48.0 KHz
Bit depth : 16 bits
Compression mode : Lossy
Stream size : 323 MiB (14%)
Title : Original | D 5.1 @ 448 kbps
Language : English
Default : No
Forced : No
Text #1
ID : 4
Format : UTF-8
Codec ID : S_TEXT/UTF8
Codec ID/Info : UTF-8 Plain Text
Language : Russian
Default : No
Forced : No
Text #2
ID : 5
Format : UTF-8
Codec ID : S_TEXT/UTF8
Codec ID/Info : UTF-8 Plain Text
Language : Ukrainian
Default : No
Forced : No
Text #3
ID : 6
Format : UTF-8
Codec ID : S_TEXT/UTF8
Codec ID/Info : UTF-8 Plain Text
Title : Full
Language : English
Default : No
Forced : No
Text #4
ID : 7
Format : UTF-8
Codec ID : S_TEXT/UTF8
Codec ID/Info : UTF-8 Plain Text
Title : SDH
Language : English
Default : No
Forced : No
Text #5
ID : 8
Format : UTF-8
Codec ID : S_TEXT/UTF8
Codec ID/Info : UTF-8 Plain Text
Title : SDH-Colored
Language : English
Default : No
Forced : No
Menu
00:00:00.000 : :(01)00:00:00:000
00:04:57.338 : :(02)00:04:57:338
00:09:55.927 : :(03)00:09:55:927
00:16:26.442 : :(04)00:16:26:442
00:20:31.730 : :(05)00:20:31:730
00:22:34.227 : :(06)00:22:34:227
00:26:31.006 : :(07)00:26:31:006
00:30:01.883 : :(08)00:30:01:883
00:35:06.353 : :(09)00:35:06:353
00:37:27.661 : :(10)00:37:27:661
00:41:41.623 : :(11)00:41:41:623
00:46:55.103 : :(12)00:46:55:103
00:49:56.617 : :(13)00:49:56:617
00:53:41.134 : :(14)00:53:41:134
01:00:08.478 : :(15)01:00:08:478
01:04:28.322 : :(16)01:04:28:322
01:06:42.498 : :(17)01:06:42:498
01:09:39.591 : :(18)01:09:39:591
01:12:37.350 : :(19)01:12:37:350
01:16:06.185 : :(20)01:16:06:185
01:19:36.563 : :(21)01:19:36:563
01:25:23.076 : :(22)01:25:23:076
01:29:56.555 : :(23)01:29:56:555
01:35:01.779 : :(24)01:35:01:779

-

Скриншоты

-
[Профиль] [ЛС]
Показать сообщения:    

Текущее время: Сегодня 00:38

Часовой пояс: GMT



Вы не можете начинать темы
Вы не можете отвечать на сообщения
Вы не можете редактировать свои сообщения
Вы не можете удалять свои сообщения
Вы не можете голосовать в опросах
Вы не можете прикреплять файлы к сообщениям
Вы не можете скачивать файлы