Полтергейст / Poltergeist (2015) WEB-DL 720p | Extended Cut | iTunes

 
Автор Сообщение

достали все ®

Пол:

Стаж: 1 год 8 месяцев

Сообщений: 6565



Награды: 12 (Подробнее)

Mega Seeder 2 (Количество: 1) Top Releaser 2 (Количество: 1) За внесенный вклад в развитие сайта (Количество: 1)
Торрент-статистика

Создавать темы 04-Сен-2015 03:46

[Цитировать]

Информация о фильме
Название: Полтергейст
Оригинальное название: Poltergeist
Год выхода: 2015
Жанр: ужасы, триллер
Режиссер: Гил Кинан
В ролях: Сэм Рокуэлл, Розмари ДеУитт, Саксон Шарбино, Кайл Кэтлетт, Кеннеди Клементс, Джаред Харрис, Джейн Адамс, Сьюзэн Хэйард, Николас Браун, Карен Ивани
О фильме: Когда страшные призраки забирают младшую дочь, семье приходится объединиться, чтобы спасти ее…

Выпущено: США, Канада / Metro-Goldwyn-Mayer (MGM), Ghost House Pictures, Vertigo Entertainment
Продолжительность: 01:41:17
Озвучивание: Дублированное [iTunes]
Файл
Формат: MKV
Качество: WEB-DL 720p
Видео: 3896 Kb/s, 1280x532
Аудио: AC3, 384 kb/s (6 ch)

MI

Format : Matroska
Format version : Version 4 / Version 2
File size : 3.09 GiB
Duration : 1h 41mn
Overall bit rate : 4 366 Kbps
Encoded date : UTC 2015-09-03 18:53:36
Writing application : mkvmerge v6.9.1 ('Blue Panther') 64bit built on Apr 18 2014 18:23:38
Writing library : libebml v1.3.0 + libmatroska v1.4.1
Video
ID : 1
Format : AVC
Format/Info : Advanced Video Codec
Format profile : Main@L3.1
Format settings, CABAC : No
Format settings, ReFrames : 2 frames
Codec ID : V_MPEG4/ISO/AVC
Duration : 1h 41mn
Bit rate : 3 896 Kbps
Width : 1 280 pixels
Height : 532 pixels
Display aspect ratio : 2.40:1
Frame rate mode : Constant
Frame rate : 23.976 fps
Color space : YUV
Chroma subsampling : 4:2:0
Bit depth : 8 bits
Scan type : Progressive
Bits/(Pixel*Frame) : 0.239
Stream size : 2.76 GiB (89%)
Language : English
Default : Yes
Forced : No
Color primaries : BT.709
Transfer characteristics : BT.709
Matrix coefficients : BT.709
Audio
ID : 2
Format : AC-3
Format/Info : Audio Coding 3
Mode extension : CM (complete main)
Format settings, Endianness : Big
Codec ID : A_AC3
Duration : 1h 41mn
Bit rate mode : Constant
Bit rate : 384 Kbps
Channel(s) : 6 channels
Channel positions : Front: L C R, Side: L R, LFE
Sampling rate : 48.0 KHz
Bit depth : 16 bits
Compression mode : Lossy
Stream size : 278 MiB (9%)
Language : Russian
Default : Yes
Forced : No
Menu
00:00:00.000 : en:1
00:04:51.000 : en:2
00:09:49.000 : en:3
00:16:20.000 : en:4
00:20:25.000 : en:5
00:22:27.000 : en:6
00:26:24.000 : en:7
00:29:54.000 : en:8
00:34:58.000 : en:9
00:37:20.000 : en:10
00:41:33.000 : en:11
00:46:46.000 : en:12
00:49:48.000 : en:13
00:53:32.000 : en:14
00:59:59.000 : en:15
01:04:19.000 : en:16
01:06:33.000 : en:17
01:09:30.000 : en:18
01:12:27.000 : en:19
01:15:56.000 : en:20
01:19:26.000 : en:21
01:25:12.000 : en:22
01:29:45.000 : en:23
01:34:50.000 : en:24

Скриншоты

[Профиль] [ЛС]
Кто просматривает тему:

Форум Тема Автор Размер
Фильмы 2011 года Адская тварь / Aswang (Рай Мартин, Бэрри Полтерманн) [1994 г., ужасы, DVDRip] [AVO (Гранкин)] Bathory 1.37 GB
Фильмы (HD Rips | 720p, 1080p) Полтергейст / Poltergeist (2015) BDRip 720p | Расширенная версия | D | iTunes Russian Mafia 4.19 GB
Фильмы (HD Rips | 720p, 1080p) Полтергейст / Poltergeist (2015) HDTV 1080p | Чистый звук достали все 4.81 GB
Фильмы (HD Rips | 720p, 1080p) Полтергейст / Poltergeist (2015) HDTV 720p | Чистый звук достали все 2.64 GB
Фильмы 2015 года Полтергейст / Poltergeist (2015) HDTVRip | Звук с CAMRip достали все 699 MB
Фильмы 2015 года Полтергейст / Poltergeist (Гил Кинан / Gil Kenan) [2015, США, Канада, ужасы, триллер, BDRip] [Theatrical Cut] Dub (CEE) TorrentFilm 1.45 GB
Фильмы 2015 года Полтергейст / Poltergeist (Гил Кинан / Gil Kenan) [2015, США, Канада, ужасы, триллер, WEB-DLRip] Dub (iTunes) + Original (Eng) + Subs (Rus, Eng) TorrentFilm 1.74 GB
Фильмы 2015 года Полтергейст / Poltergeist (Гил Кинан / Gil Kenan) [2015, США, Канада, ужасы, триллер, WEB-LDRip-AVC] Dub [CAMRip] + Eng | Eng + Spa subs TorrentFilm 2.17 GB
Показать сообщения:    

Текущее время: Сегодня 16:16

Часовой пояс: GMT



Вы не можете начинать темы
Вы не можете отвечать на сообщения
Вы не можете редактировать свои сообщения
Вы не можете удалять свои сообщения
Вы не можете голосовать в опросах
Вы не можете прикреплять файлы к сообщениям
Вы не можете скачивать файлы