Полтергейст / Poltergeist (2015) HDTV 1080p | Чистый звук

 
Автор Сообщение

достали все ®

Пол:

Стаж: 1 год 8 месяцев

Сообщений: 6527



Награды: 12 (Подробнее)

Mega Releaser 1 (Количество: 1) Mega Releaser 3 (Количество: 1) За внесенный вклад в развитие сайта (Количество: 1)
Торрент-статистика

Создавать темы 26-Июн-2015 02:50

[Цитировать]

Информация о фильме
Название: Полтергейст
Оригинальное название: Poltergeist
Год выхода: 2015
Жанр: ужасы, триллер
Режиссер: Гил Кинан
В ролях: Сэм Рокуэлл, Розмари ДеУитт, Саксон Шарбино, Кайл Кэтлетт, Кеннеди Клементс, Джаред Харрис, Джейн Адамс, Сьюзэн Хэйард, Николас Браун, Карен Ивани
О фильме: Когда страшные призраки забирают младшую дочь, семье приходится объединиться, чтобы спасти ее…

Выпущено: США, Канада / Metro-Goldwyn-Mayer (MGM), Ghost House Pictures, Vertigo Entertainment
Продолжительность: 01:33:39
Озвучивание: Дублированное [Чистый звук]
Примечание: Присутствует около 4 минут вставок звука с CAMRip.
Файл
Формат: MKV (x264)
Качество: HDTV 1080p
Видео: 6380 kb/s, 1920x800
Аудио: Russian: AC3, 192 kb/s (2 ch) / English: AC3, 640 kb/s (6 ch)
Семпл

МедиаИнфо

Формат : Matroska
Версия формата : Version 4 / Version 2
Размер файла : 4,81 Гбайт
Продолжительность : 1 ч. 33 м.
Общий поток : 7358 Кбит/сек
Название фильма : Poltergeist.2015.D.HDTV.1080p.mkv [Carl Gauß]
Дата кодирования : UTC 2015-06-25 11:02:22
Программа кодирования : mkvmerge v6.9.1 ('Blue Panther') 64bit built on Apr 18 2014 18:23:38
Библиотека кодирования : libebml v1.3.0 + libmatroska v1.4.1
Видео
Идентификатор : 1
Формат : AVC
Формат/Информация : Advanced Video Codec
Профиль формата : High@L4.1
Параметр CABAC формата : Да
Параметр ReFrames формата : 4 кадра
Идентификатор кодека : V_MPEG4/ISO/AVC
Продолжительность : 1 ч. 33 м.
Битрейт : 6380 Кбит/сек
Ширина : 1920 пикселей
Высота : 800 пикселей
Соотношение сторон : 2,40:1
Режим частоты кадров : Постоянный
Частота кадров : 23,976 кадра/сек
Цветовое пространство : YUV
Субдискретизация насыщенности : 4:2:0
Битовая глубина : 8 бит
Тип развёртки : Прогрессивная
Бит/(Пиксели*Кадры) : 0.173
Размер потока : 4,17 Гбайт (87%)
Заголовок : Poltergeist.2015.D.HDTV.1080p.mkv [Carl Gauß]
Библиотека кодирования : x264 core 146 r2538 121396c
Настройки программы : cabac=1 / ref=4 / deblock=1:-2:-2 / analyse=0x3:0x133 / me=umh / subme=10 / psy=1 / psy_rd=1.00:0.00 / mixed_ref=1 / me_range=32 / chroma_me=1 / trellis=2 / 8x8dct=1 / cqm=0 / deadzone=21,11 / fast_pskip=1 / chroma_qp_offset=-2 / threads=18 / lookahead_threads=2 / sliced_threads=0 / nr=0 / decimate=1 / interlaced=0 / bluray_compat=0 / constrained_intra=0 / bframes=5 / b_pyramid=2 / b_adapt=2 / b_bias=0 / direct=3 / weightb=1 / open_gop=0 / weightp=2 / keyint=250 / keyint_min=23 / scenecut=40 / intra_refresh=0 / rc_lookahead=60 / rc=crf / mbtree=1 / crf=17.0 / qcomp=0.60 / qpmin=0 / qpmax=69 / qpstep=4 / ip_ratio=1.40 / aq=1:1.00
Default : Да
Forced : Нет
colour_range : Limited
Коэффициенты матрицы : BT.709
Аудио #1
Идентификатор : 2
Формат : AC-3
Формат/Информация : Audio Coding 3
Расширение режима : CM (complete main)
Параметр Endianness формата : Big
Идентификатор кодека : A_AC3
Продолжительность : 1 ч. 33 м.
Вид битрейта : Постоянный
Битрейт : 192 Кбит/сек
Каналы : 2 канала
Расположение каналов : Front: L R
Частота : 48,0 КГц
Метод сжатия : С потерями
Размер потока : 129 Мбайт (3%)
Заголовок : Poltergeist.2015.D.HDTV.1080p.mkv [Carl Gauß]
Язык : Russian
Default : Да
Forced : Нет
Аудио #2
Идентификатор : 3
Формат : AC-3
Формат/Информация : Audio Coding 3
Расширение режима : CM (complete main)
Параметр Endianness формата : Big
Идентификатор кодека : A_AC3
Продолжительность : 1 ч. 33 м.
Вид битрейта : Постоянный
Битрейт : 640 Кбит/сек
Каналы : 6 каналов
Расположение каналов : Front: L C R, Side: L R, LFE
Частота : 48,0 КГц
Метод сжатия : С потерями
Размер потока : 429 Мбайт (9%)
Заголовок : Poltergeist.2015.D.HDTV.1080p.mkv [Carl Gauß]
Язык : English
Default : Нет
Forced : Нет

Скриншоты

[Профиль] [ЛС]
Кто просматривает тему:

Форум Тема Автор Размер
Фильмы 2011 года Адская тварь / Aswang (Рай Мартин, Бэрри Полтерманн) [1994 г., ужасы, DVDRip] [AVO (Гранкин)] Bathory 1.37 GB
Фильмы (HD Rips | 720p, 1080p) Полтергейст / Poltergeist (2015) BDRip 720p | Расширенная версия | D | iTunes Russian Mafia 4.19 GB
Фильмы (HD Rips | 720p, 1080p) Полтергейст / Poltergeist (2015) HDTV 720p | Чистый звук достали все 2.64 GB
Фильмы 2015 года Полтергейст / Poltergeist (2015) HDTVRip | Звук с CAMRip достали все 699 MB
Фильмы (HD Rips | 720p, 1080p) Полтергейст / Poltergeist (2015) WEB-DL 720p | Extended Cut | iTunes достали все 3.09 GB
Фильмы 2015 года Полтергейст / Poltergeist (Гил Кинан / Gil Kenan) [2015, США, Канада, ужасы, триллер, BDRip] [Theatrical Cut] Dub (CEE) TorrentFilm 1.45 GB
Фильмы 2015 года Полтергейст / Poltergeist (Гил Кинан / Gil Kenan) [2015, США, Канада, ужасы, триллер, WEB-DLRip] Dub (iTunes) + Original (Eng) + Subs (Rus, Eng) TorrentFilm 1.74 GB
Фильмы 2015 года Полтергейст / Poltergeist (Гил Кинан / Gil Kenan) [2015, США, Канада, ужасы, триллер, WEB-LDRip-AVC] Dub [CAMRip] + Eng | Eng + Spa subs TorrentFilm 2.17 GB
Показать сообщения:    

Текущее время: Сегодня 22:09

Часовой пояс: GMT



Вы не можете начинать темы
Вы не можете отвечать на сообщения
Вы не можете редактировать свои сообщения
Вы не можете удалять свои сообщения
Вы не можете голосовать в опросах
Вы не можете прикреплять файлы к сообщениям
Вы не можете скачивать файлы