Полтергейст / Poltergeist (2015) HDTV 720p | Чистый звук

 
Автор Сообщение

достали все ®

Пол:

Стаж: 1 год 8 месяцев

Сообщений: 6517



Награды: 12 (Подробнее)

Mega Seeder 2 (Количество: 1) Top Releaser 2 (Количество: 1) Mega Seeder 4 (Количество: 1)
Торрент-статистика

Создавать темы 26-Июн-2015 02:43

[Цитировать]

Информация о фильме
Название: Полтергейст
Оригинальное название: Poltergeist
Год выхода: 2015
Жанр: ужасы, триллер
Режиссер: Гил Кинан
В ролях: Сэм Рокуэлл, Розмари ДеУитт, Саксон Шарбино, Кайл Кэтлетт, Кеннеди Клементс, Джаред Харрис, Джейн Адамс, Сьюзэн Хэйард, Николас Браун, Карен Ивани
О фильме: Когда страшные призраки забирают младшую дочь, семье приходится объединиться, чтобы спасти ее…

Выпущено: США, Канада / Metro-Goldwyn-Mayer (MGM), Ghost House Pictures, Vertigo Entertainment
Продолжительность: 01:33:39
Озвучивание: Дублированное [Чистый звук]
Примечание: Присутствует около 4 минут вставок звука с CAMRip.
Файл
Формат: mkv
Качество: HDTV 720p
Видео: MPEG-4 AVC, 3399 Кбит/с, 1280x534
Аудио: Русский (AC3, 2 ch, 192 Кбит/с), английский (AC3, 6 ch, 448 Кбит/с)
Размер: 2.64 ГБ
Скачать: Сэмпл---

Media Info

Формат : Matroska
Версия формата : Version 2
Размер файла : 2,64 Гбайт
Продолжительность : 1 ч. 33 м.
Общий поток : 4041 Кбит/сек
Название фильма : Poltergeist (2015)
Дата кодирования : UTC 2015-06-25 18:39:42
Программа кодирования : mkvmerge v7.9.0 ('Birds') 64bit
Библиотека кодирования : libebml v1.3.1 + libmatroska v1.4.2
Attachements : cover.jpg / image_php.jpg
Видео
Идентификатор : 1
Формат : AVC
Формат/Информация : Advanced Video Codec
Профиль формата : High@L4.1
Параметр CABAC формата : Да
Параметр ReFrames формата : 12 кадров
Идентификатор кодека : V_MPEG4/ISO/AVC
Продолжительность : 1 ч. 33 м.
Битрейт : 3399 Кбит/сек
Ширина : 1280 пикселей
Высота : 534 пикселя
Соотношение сторон : 2,40:1
Режим частоты кадров : Постоянный
Частота кадров : 23,976 кадра/сек
Цветовое пространство : YUV
Субдискретизация насыщенности : 4:2:0
Битовая глубина : 8 бит
Тип развёртки : Прогрессивная
Бит/(Пиксели*Кадры) : 0.207
Размер потока : 2,17 Гбайт (82%)
Библиотека кодирования : x264 core 146 r2538 121396c
Настройки программы : cabac=1 / ref=12 / deblock=1:-3:-3 / analyse=0x3:0x113 / me=umh / subme=10 / psy=1 / psy_rd=1.00:0.15 / mixed_ref=1 / me_range=16 / chroma_me=1 / trellis=2 / 8x8dct=1 / cqm=0 / deadzone=21,11 / fast_pskip=1 / chroma_qp_offset=-3 / threads=7 / lookahead_threads=1 / sliced_threads=0 / nr=0 / decimate=1 / interlaced=0 / bluray_compat=0 / constrained_intra=0 / bframes=7 / b_pyramid=2 / b_adapt=2 / b_bias=0 / direct=1 / weightb=1 / open_gop=0 / weightp=2 / keyint=240 / keyint_min=23 / scenecut=40 / intra_refresh=0 / rc_lookahead=60 / rc=2pass / mbtree=1 / bitrate=3399 / ratetol=1.0 / qcomp=0.60 / qpmin=0 / qpmax=69 / qpstep=4 / cplxblur=20.0 / qblur=0.5 / vbv_maxrate=30000 / vbv_bufsize=38000 / nal_hrd=none / filler=0 / ip_ratio=1.40 / aq=1:1.00
Язык : English
Default : Да
Forced : Нет
Цветовой диапазон : Limited
Основные цвета : BT.709
Характеристики трансфера : BT.709
Коэффициенты матрицы : BT.709
Аудио #1
Идентификатор : 2
Формат : AC-3
Формат/Информация : Audio Coding 3
Расширение режима : CM (complete main)
Параметр Endianness формата : Big
Идентификатор кодека : A_AC3
Продолжительность : 1 ч. 33 м.
Вид битрейта : Постоянный
Битрейт : 192 Кбит/сек
Каналы : 2 канала
Расположение каналов : Front: L R
Частота : 48,0 КГц
Метод сжатия : С потерями
Размер потока : 129 Мбайт (5%)
Заголовок : AC3 / 2.0 / 192 kbps / Line
Язык : Russian
Default : Да
Forced : Нет
Аудио #2
Идентификатор : 3
Формат : AC-3
Формат/Информация : Audio Coding 3
Расширение режима : CM (complete main)
Параметр Endianness формата : Big
Идентификатор кодека : A_AC3
Продолжительность : 1 ч. 33 м.
Вид битрейта : Постоянный
Битрейт : 448 Кбит/сек
Каналы : 6 каналов
Расположение каналов : Front: L C R, Side: L R, LFE
Частота : 48,0 КГц
Метод сжатия : С потерями
Размер потока : 300 Мбайт (11%)
Заголовок : AC3 / 5.1 / 448 kbps / Original
Язык : English
Default : Нет
Forced : Нет
Меню
00:07:29.366 : en:00:07:29.366
00:13:41.571 : en:00:13:41.571
00:23:19.732 : en:00:23:19.732
00:30:45.385 : en:00:30:45.385
00:35:43.850 : en:00:35:43.850
00:44:16.863 : en:00:44:16.863
00:49:52.364 : en:00:49:52.364
00:57:46.546 : en:00:57:46.546
01:02:43.760 : en:01:02:43.760
01:12:23.297 : en:01:12:23.297
01:23:49.024 : en:01:23:49.024
01:27:47.024 : en:01:27:47.024
--- --- -

Скриншоты

-
[Профиль] [ЛС]
Кто просматривает тему:

Форум Тема Автор Размер
Фильмы 2011 года Адская тварь / Aswang (Рай Мартин, Бэрри Полтерманн) [1994 г., ужасы, DVDRip] [AVO (Гранкин)] Bathory 1.37 GB
Фильмы (HD Rips | 720p, 1080p) Полтергейст / Poltergeist (2015) BDRip 720p | Расширенная версия | D | iTunes Russian Mafia 4.19 GB
Фильмы (HD Rips | 720p, 1080p) Полтергейст / Poltergeist (2015) HDTV 1080p | Чистый звук достали все 4.81 GB
Фильмы 2015 года Полтергейст / Poltergeist (2015) HDTVRip | Звук с CAMRip достали все 699 MB
Фильмы (HD Rips | 720p, 1080p) Полтергейст / Poltergeist (2015) WEB-DL 720p | Extended Cut | iTunes достали все 3.09 GB
Фильмы 2015 года Полтергейст / Poltergeist (Гил Кинан / Gil Kenan) [2015, США, Канада, ужасы, триллер, BDRip] [Theatrical Cut] Dub (CEE) TorrentFilm 1.45 GB
Фильмы 2015 года Полтергейст / Poltergeist (Гил Кинан / Gil Kenan) [2015, США, Канада, ужасы, триллер, WEB-DLRip] Dub (iTunes) + Original (Eng) + Subs (Rus, Eng) TorrentFilm 1.74 GB
Фильмы 2015 года Полтергейст / Poltergeist (Гил Кинан / Gil Kenan) [2015, США, Канада, ужасы, триллер, WEB-LDRip-AVC] Dub [CAMRip] + Eng | Eng + Spa subs TorrentFilm 2.17 GB
Показать сообщения:    

Текущее время: Сегодня 07:05

Часовой пояс: GMT



Вы не можете начинать темы
Вы не можете отвечать на сообщения
Вы не можете редактировать свои сообщения
Вы не можете удалять свои сообщения
Вы не можете голосовать в опросах
Вы не можете прикреплять файлы к сообщениям
Вы не можете скачивать файлы