Полследний лимузин (Дарья Хлесткина)[2013, Документальный, HDTV 720p]

 
Автор Сообщение

TorrentFilm ®

Пол:

Стаж: 2 года

Сообщений: 7741



Награды: Нет

Торрент-статистика

Создавать темы 22-Дек-2014 02:00

[Цитировать]

Последний лимузин (Дарья Хлесткина) [2013, Документальный, HDTV, AVC]
Год выпуска: 2013
Страна: Россия
Жанр: Документальный
Продолжительность: 1 ч. 15 м.
Перевод: Не требуется
Русские субтитры: нет
Режиссер: Дарья Хлесткина
Описание: «Последний лимузин» это полнометражная картина Дарьи Хлёсткиной о работе Цеха легковых автомобилей Завода им. Лихачёва, который впервые за последние 20 лет получил заказ на изготовление трех лимузинов. Фильм получил национальную премию «Лавр», был награжден на кинофестивале «Зеркало» и стал победителем «Артдокфеста-2013»
Представьте себе: все, что вы делали раньше, теперь никому не нужно. Михаил, Андрей, Нина, Владимир, Надя и Люда — топ-менеджер, начальник цеха, старший мастер, инженер, кладовщица и рабочие московского автозавода им. Лихачева — держатся изо всех сил за привычный порядок и профессиональную гордость, чтобы выдержать в обстоятельствах, когда все вокруг рушится.
И вот, впервые за 20 лет, завод получает заказ от Министерства обороны изготовить три классических кабриолета ЗИЛ для Парада Победы на Красной площади. Директор специального цеха Михаил и его команда радостно берутся за дело, чтобы доказать, чего они стоят.
Сэмпл: http://www.kinopoisk.ru/film/808108/video/90558/
Тип релиза: HDTV 720p
Контейнер: MKV
Видео: MPEG-4; AVC; 1280х720; 16:9
Аудио: AAC

MediaInfo

Полное имя : D:\Видео\Последний лимузин\Последний лимузин.mp4Формат : MPEG-4Профиль формата : Base Media / Version 2Идентификатор кодека : mp42Размер файла : 1,14 ГбайтПродолжительность : 1 ч. 15 м.Режим общего битрейта : ПеременныйОбщий поток : 2172 Кбит/секДата кодирования : UTC 2014-10-10 22:06:48Дата пометки : UTC 2014-10-10 22:06:48gsst : 0gstd : 4520135gssd : B4D25FA87HH1417885666249886gshh : r4---sn-gvnuxaxjvh-c35l.googlevideo.comВидеоИдентификатор : 1Формат : AVCФормат/Информация : Advanced Video CodecПрофиль формата : High@L3.1Параметр CABAC формата : ДаПараметр ReFrames формата : 1 кадрИдентификатор кодека : avc1Идентификатор кодека/Информация : Advanced Video CodingПродолжительность : 1 ч. 15 м.Битрейт : 1977 Кбит/секМаксимальный битрейт : 5198 Кбит/секШирина : 1280 пикселейВысота : 720 пикселейСоотношение сторон : 16:9Режим частоты кадров : ПостоянныйЧастота кадров : 25,000 кадров/секЦветовое пространство : YUVСубдискретизация насыщенности : 4:2:0Битовая глубина : 8 битТип развёртки : ПрогрессивнаяБит/(Пиксели*Кадры) : 0.086Размер потока : 1,04 Гбайт (91%)Дата пометки : UTC 2014-10-10 22:09:21АудиоИдентификатор : 2Формат : AACФормат/Информация : Advanced Audio CodecПрофиль формата : LCИдентификатор кодека : 40Продолжительность : 1 ч. 15 м.Вид битрейта : ПеременныйБитрейт : 192 Кбит/секМаксимальный битрейт : 203 Кбит/секКаналы : 2 каналаРасположение каналов : Front: L RЧастота : 44,1 КГцМетод сжатия : С потерямиРазмер потока : 103 Мбайт (9%)Заголовок : IsoMedia File Produced by Google, 5-11-2011Дата кодирования : UTC 2014-10-10 22:07:47Дата пометки : UTC 2014-10-10 22:09:21

Скриншоты



По возможности подольше оставайтесь на раздаче, у меня слабенький планшет.
[Профиль] [ЛС]
Кто просматривает тему:

Показать сообщения:    

Текущее время: Сегодня 16:35

Часовой пояс: GMT



Вы не можете начинать темы
Вы не можете отвечать на сообщения
Вы не можете редактировать свои сообщения
Вы не можете удалять свои сообщения
Вы не можете голосовать в опросах
Вы не можете прикреплять файлы к сообщениям
Вы не можете скачивать файлы