Половое воспитание / Sex Ed (2014) WEB-DL 720p | Чистый звук

 
Автор Сообщение

достали все ®

Пол:

Стаж: 1 год 8 месяцев

Сообщений: 6527



Награды: 12 (Подробнее)

Mega Seeder 4 (Количество: 1) Top Releaser 2 (Количество: 1) Mega Releaser 1 (Количество: 1)
Торрент-статистика

Создавать темы 22-Ноя-2015 14:00

[Цитировать]

Информация о фильме
Название: Половое воспитание
Оригинальное название: Sex Ed
Год выхода: 2014
Жанр: мелодрама, комедия
Режиссер: Исаак Федер
В ролях: Лоренца Иззо, Хэйли Джоэл Осмент, Глен Пауэлл, Лаура Хэрринг, Джордж Идс, Эбби Эллиотт, Мэтт Уолш, Ретта, Паркер Янг, Рэй Сантьяго
О фильме: Эдди проводит свой первый урок в средней школе и обнаруживает, что его ученики не получают никакого полового воспитания. Он решает это исправить, хотя сам не слишком опытен в этой сфере.

Выпущено: США / Sweet Tomato Films
Продолжительность: 01:32:22
Озвучивание: Дублированное [Чистый звук]
Файл
Формат: MKV
Качество: WEB-DL 720p
Видео: MPEG-4 AVC, 4004 kb/s, 1280x538
Аудио: Russian: AC3, 192 kb/s (2 ch) / English: AC3, 384 kb/s (6 ch)
Субтитры: English

MI

Format : Matroska
Format version : Version 2
File size : 3.01 GiB
Duration : 1h 32mn
Overall bit rate : 4 673 Kbps
Encoded date : UTC 2015-11-22 13:41:55
Writing application : mkvmerge v7.8.0 ('River Man') 32bit built on Apr 3 2015 12:11:22
Writing library : libebml v1.3.1 + libmatroska v1.4.2
Video
ID : 1
Format : AVC
Format/Info : Advanced Video Codec
Format profile : Main@L3.1
Format settings, CABAC : No
Format settings, ReFrames : 2 frames
Codec ID : V_MPEG4/ISO/AVC
Duration : 1h 32mn
Bit rate : 4 004 Kbps
Width : 1 280 pixels
Height : 538 pixels
Display aspect ratio : 2.40:1
Frame rate mode : Constant
Frame rate : 23.976 fps
Color space : YUV
Chroma subsampling : 4:2:0
Bit depth : 8 bits
Scan type : Progressive
Bits/(Pixel*Frame) : 0.242
Stream size : 2.58 GiB (86%)
Language : English
Default : Yes
Forced : No
Color range : Limited
Color primaries : BT.709
Transfer characteristics : BT.709
Matrix coefficients : BT.709
Audio #1
ID : 2
Format : AC-3
Format/Info : Audio Coding 3
Mode extension : CM (complete main)
Format settings, Endianness : Big
Codec ID : A_AC3
Duration : 1h 32mn
Bit rate mode : Constant
Bit rate : 192 Kbps
Channel(s) : 2 channels
Channel positions : Front: L R
Sampling rate : 48.0 KHz
Bit depth : 16 bits
Compression mode : Lossy
Stream size : 127 MiB (4%)
Language : Russian
Default : Yes
Forced : No
Audio #2
ID : 3
Format : AC-3
Format/Info : Audio Coding 3
Mode extension : CM (complete main)
Format settings, Endianness : Big
Codec ID : A_AC3
Duration : 1h 32mn
Bit rate mode : Constant
Bit rate : 384 Kbps
Channel(s) : 6 channels
Channel positions : Front: L C R, Side: L R, LFE
Sampling rate : 48.0 KHz
Bit depth : 16 bits
Compression mode : Lossy
Stream size : 254 MiB (8%)
Language : English
Default : No
Forced : No
Text
ID : 4
Format : UTF-8
Codec ID : S_TEXT/UTF8
Codec ID/Info : UTF-8 Plain Text
Language : English
Default : No
Forced : No
Menu
00:00:00.000 : en:Chapter 1
00:11:03.000 : en:Chapter 2
00:20:07.000 : en:Chapter 3
00:31:39.000 : en:Chapter 4
00:44:28.000 : en:Chapter 5
00:54:30.000 : en:Chapter 6
01:08:13.000 : en:Chapter 7
01:21:59.000 : en:Chapter 8
01:28:27.000 : en:Chapter 9

Скриншоты

[Профиль] [ЛС]
Показать сообщения:    

Текущее время: Сегодня 22:10

Часовой пояс: GMT



Вы не можете начинать темы
Вы не можете отвечать на сообщения
Вы не можете редактировать свои сообщения
Вы не можете удалять свои сообщения
Вы не можете голосовать в опросах
Вы не можете прикреплять файлы к сообщениям
Вы не можете скачивать файлы