Полный расколбас / Sausage Party (2016) CAMRip | L

 
Автор Сообщение

BOSS ®

Пол:

Стаж: 2 года 1 месяц

Сообщений: 3735

Откуда: ODESSA



Награды: 20 (Подробнее)

Mega Seeder 1 (Количество: 1) За внесенный вклад в развитие сайта (Количество: 1) Top Keeper 4 (Количество: 1)
Торрент-статистика

Создавать темы 21-Авг-2016 04:55

[Цитировать]

Полный расколбас / Sausage Party
Страна: США
Производство: Columbia Pictures, Annapurna Pictures, Nitrogen Studios Canada, Point Grey Pictures
Год выпуска: 2016
Жанр: мультфильм, комедия, приключения
Продолжительность: 01:21:36
Режиссеры: Грег Тирнан, Конрад Вернон
Авторы сценария: Сет Роген, Эван Голдберг, Кайл Хантер
В ролях: Алистэр Эбелл, Айрис Апатоу, Стефани Бирд, Майкл Сера, Йен Джеймс Корлетт, Майкл Дэйнджерфилд, Брайан Добсон, Майкл Добсон, Джеймс Франко
Описание: Первая анимационная комедия для взрослых о невероятных приключениях еды из супермаркета. Съедобным друзьям предстоит получить ответ на главный вопрос: есть ли жизнь за стенами супермаркета и что же происходит с продуктами после того, как они попадают к людям домой..?

Перевод: Любительский (многоголосый, закадровый)
Субтитры: нет-Качество: CAMRip
Формат: АVI
Видео кодек: XviD
Аудио кодек: АС3
Видео: 720x256 (2.813), 29.970 fps, XviD ~2 003 kbps avg
Аудио: 48.0 kHz, AC3 Dolby Digital, 2/0 (L,R) ch, ~384 kbps
Дата премьеры (мир): 12 августа 2016
Дата премьеры (РФ): 8 сентября 2016, «WDSSPR»
ПРИМЕЧАНИЕ: ПРИСУТСТВУЕТ РЕКЛАМА!

Media Info

General
Общее
Полное имя : Sausage.Party.2016.MVO.CAMRip.14OOMB.avi
Формат : AVI
Формат/Информация : Audio Video Interleave
Размер файла : 1,37 Гбайт
Продолжительность : 1 ч. 21 м.
Общий поток : 2399 Кбит/сек
Программа кодирования : VirtualDubMod 1.5.10.2 (build 2540/release)
Библиотека кодирования : VirtualDubMod build 2540/release
Видео
Идентификатор : 0
Формат : MPEG-4 Visual
Профиль формата : Advanced Simple@L5
Параметр BVOP формата : Да
Параметр QPel формата : Нет
Параметр GMC формата : Без точки перехода
Параметр матрицы формата : Выборочная
Идентификатор кодека : XVID
Идентификатор кодека/Подсказка : XviD
Продолжительность : 1 ч. 21 м.
Битрейт : 2003 Кбит/сек
Ширина : 720 пикселей
Высота : 256 пикселей
Соотношение сторон : 2,813
Частота кадров : 29,970 (30000/1001) кадров/сек
Цветовое пространство : YUV
Субдискретизация насыщенности : 4:2:0
Битовая глубина : 8 бит
Тип развёртки : Прогрессивная
Метод сжатия : С потерями
Бит/(Пиксели*Кадры) : 0.363
Размер потока : 1,14 Гбайт (84%)
Библиотека кодирования : XviD 1.2.1 (UTC 2008-12-04)
Аудио
Идентификатор : 1
Формат : AC-3
Формат/Информация : Audio Coding 3
Расширение режима : CM (complete main)
Параметр Endianness формата : Big
Идентификатор кодека : 2000
Продолжительность : 1 ч. 21 м.
Вид битрейта : Постоянный
Битрейт : 384 Кбит/сек
Каналы : 2 канала
Расположение каналов : Front: L R
Частота : 48,0 КГц
Частота кадров : 31,250 кадров/сек (1536 spf)
Метод сжатия : С потерями
Размер потока : 224 Мбайт (16%)
Выравнивание : Разделение по промежуткам
Продолжительность промежутка : 33 мс. (1,00 видеокадр)
Время предзагрузки промежутка : 500 мс.

Скриншоты

[Профиль] [ЛС]
Кто просматривает тему:

Форум Тема Автор Размер
Pop (Pop, Dance) VA - Хиты & Полный Бак (2014) [MP3|256-320 кб/с] sergej644 669 MB
50/50 VA - Хиты и Полный Бак (2015) MP3 достали все 836 MB
Работа с носителями информации VLC Media Player 2.3.1.5 [Последний релиз][Полный][Январь 2016] 2.3.1.5 56813 x86 x64 [26 January 2016, MULTILANG +RUS] TorrentFilm 57 MB
XXXI Летние Олимпийские игры. Рио-де-Жанейро 2016 (Бразилия) XXXI Летние Олимпийские Игры. Рио-де-Жанейро (Бразилия). Велоспорт. Трек. Женщины. Мужчины. Полный день [12.08] (2016) IPTV 1080i BOSS 4.75 GB
XXXI Летние Олимпийские игры. Рио-де-Жанейро 2016 (Бразилия) XXXI Летние Олимпийские Игры. Рио-де-Жанейро (Бразилия). Велоспорт. Трек. Женщины. Мужчины. Полный день [13.08] (2016) IPTV 1080i ODESSA 5.24 GB
XXXI Летние Олимпийские игры. Рио-де-Жанейро 2016 (Бразилия) XXXI Летние Олимпийские Игры. Рио-де-Жанейро (Бразилия). Велоспорт. Трек. Женщины. Мужчины. Полный день [14.08] (2016) IPTV 1080i ODESSA 4.64 GB
XXXI Летние Олимпийские игры. Рио-де-Жанейро 2016 (Бразилия) XXXI Летние Олимпийские Игры. Рио-де-Жанейро (Бразилия). Велоспорт. Трек. Женщины. Мужчины. Полный день [15.08] (2016) IPTV 1080i ODESSA 4.26 GB
Программы [Справочник] Полный курс HTML / CSS / JS / PHP [Android, Multi] TorrentFilm 51 MB
Показать сообщения:    

Текущее время: Сегодня 16:26

Часовой пояс: GMT



Вы не можете начинать темы
Вы не можете отвечать на сообщения
Вы не можете редактировать свои сообщения
Вы не можете удалять свои сообщения
Вы не можете голосовать в опросах
Вы не можете прикреплять файлы к сообщениям
Вы не можете скачивать файлы