Полный облом / Big Nothing (Жан-Баптист Андреа / Jean-Baptiste Andrea) [2006, Великобритания, Канада, триллер, комедия, криминал, BDRip-AVC] DUB + AVO + Original + Subs (rus, eng)

 
Автор Сообщение

reversefile ®

Пол:

Стаж: 4 года 5 месяцев

Сообщений: 842

Откуда: ReverseFile.org



Награды: Нет

Торрент-статистика

Создавать темы 13-Авг-2014 10:03

[Цитировать]

Полный облом / Big Nothing«Парочка трупов - это только начало!»- Страна: Великобритания, Канада
Жанр: триллер, комедия, криминал
Год выпуска: 2006
Продолжительность: 01:25:33-Перевод: #1 Профессиональный (дублированный) "Мосфильм-мастер"
Перевод: #2 Авторский (А.Карповский)
Оригинальная аудиодорожка: (Английская)
Cубтитры: Русские, Английские
Формат субтитров: (SRT)
Навигация: 12 англоязычных глав-Режиссер: Жан-Баптист Андреа / Jean-Baptiste Andrea
В ролях: Дэвид Швиммер, Саймон Пегг, Элис Ив, Джон Полито, Наташа МакЭлхоун, Мими Роджерс, Билли Эшер, Джулиан Гловер, Оливия Петерсон, Сара Эдмондсон и др-Описание: Что может быть страшнее для Чарли Вуда — школьного учителя, чем с треском вылететь с «любимой» работы и попрощаться с бандой малолетних спиногрызов? Только сидеть на шее у своей жены — копа, превратиться в домохозяйку и няню в одном лице. Или просиживать штаны в пыльной конторе до конца жизни…
Отличная перспектива! Но судьба все же слабо улыбнулась патологическому неудачнику. Наверное, она просто хотела над ним посмеяться. Жаль, что он сразу этого не понял…
- -Качество видео: BDRip-AVC
Формат видео: MKV
Автор рипа: dOrOgOi | -Видео: 1040 x 442 (2.35:1), 23.976 fps, AVC, ~2 313 kbps avg, 0.210 bit/pixel
Аудио 1: AC3, 48.0 KHz, 6 channels (Front: L C R, Side: L R, LFE), 448.00 kbps avg | Профессиональный (дублированный) "Мосфильм-мастер"
Аудио 2: AC3, 48.0 KHz, 6 channels (Front: L C R, Side: L R, LFE), 448.00 kbps avg | Авторский (А. Карповский)
Аудио 3: AC3, 48.0 KHz, 6 channels (Front: L C R, Side: L R, LFE), 448.00 kbps avg | Оригинал (Английский)

MediaInfo & x264 logx264 log

raw [info]: 1040x442p 1:1 @ 24000/1001 fps (cfr)
x264 [info]: using SAR=1/1
x264 [info]: using cpu capabilities: MMX2 SSE2Fast SSSE3 SSE4.2 AVX AVX2 FMA3 LZCNT BMI2
x264 [info]: profile High, level 4.1
x264 [info]: frame I:1086  Avg QP:16.73  size: 61991
x264 [info]: frame P:24759 Avg QP:19.07  size: 23549
x264 [info]: frame B:97228 Avg QP:21.40  size:  8561
x264 [info]: consecutive B-frames:  2.0%  2.8%  5.7% 12.8% 17.1% 40.4%  8.2%  2.3%  3.0%  1.7%  1.2%  0.6%  0.7%  0.7%  0.6%
x264 [info]: mb I  I16..4: 11.9% 69.3% 18.8%
x264 [info]: mb P  I16..4:  0.7%  9.6%  1.2%  P16..4: 29.4% 33.5% 11.8%  1.6%  0.1%    skip:12.1%
x264 [info]: mb B  I16..4:  0.0%  0.8%  0.1%  B16..8: 36.0% 18.4%  3.5%  direct: 5.1%  skip:35.9%  L0:44.2% L1:45.0% BI:10.7%
x264 [info]: 8x8 transform intra:81.0% inter:58.4%
x264 [info]: direct mvs  spatial:97.8% temporal:2.2%
x264 [info]: coded y,uvDC,uvAC intra: 88.3% 84.2% 68.6% inter: 23.7% 21.7% 7.1%
x264 [info]: i16 v,h,dc,p: 25% 20% 15% 40%
x264 [info]: i8 v,h,dc,ddl,ddr,vr,hd,vl,hu: 10%  7% 11% 10% 13% 13% 12% 12% 12%
x264 [info]: i4 v,h,dc,ddl,ddr,vr,hd,vl,hu: 14%  8%  7%  9% 14% 14% 12% 11% 12%
x264 [info]: i8c dc,h,v,p: 43% 22% 17% 18%
x264 [info]: Weighted P-Frames: Y:3.2% UV:1.6%
x264 [info]: ref P L0: 43.2%  8.0% 18.6%  6.8%  6.0%  4.1%  3.7%  1.8%  1.8%  1.4%  1.4%  1.1%  1.1%  1.0%  0.1%  0.0%
x264 [info]: ref B L0: 67.1% 13.2%  6.5%  3.4%  2.5%  2.3%  1.6%  0.9%  0.7%  0.7%  0.6%  0.4%  0.1%
x264 [info]: ref B L1: 91.2%  8.8%
x264 [info]: kb/s:2310.92
x264 [total]: encoded 123073 frames, 14.42 fps, 2310.92 kb/s

MI

General
Unique ID                                : 207508702423278931923197515402767123412 (0x9C1CB8ED5B9BCE1FBAF4845F2F0643D4)
Complete name                            : D:\Polnyi.Oblom.Big.Nothing.2006.BDRip-AVC.DUB.AVO.ENG.SUBs.by.dOrOgOi.mkv
Format                                   : Matroska
Format version                           : Version 4 / Version 2
File size                                : 2.19 GiB
Duration                                 : 1h 25mn
Overall bit rate                         : 3 657 Kbps
Movie name                               : Polnyi.Oblom.Big.Nothing.2006.BDRip-AVC.DUB.AVO.ENG.SUBs.by.dOrOgOi
Encoded date                             : UTC 2014-07-20 18:58:01
Writing application                      : mkvmerge v7.0.0 ('Where We Going') 64bit built on Jun  9 2014 15:16:27
Writing library                          : libebml v1.3.0 + libmatroska v1.4.1
DURATION                                 : 01:25:33.152000000
NUMBER_OF_FRAMES                         : 160411
NUMBER_OF_BYTES                          : 287456512
_STATISTICS_WRITING_APP                  : mkvmerge v7.0.0 ('Where We Going') 64bit built on Jun  9 2014 15:16:27
_STATISTICS_WRITING_DATE_UTC             : 2014-07-20 18:58:01
_STATISTICS_TAGS                         : BPS DURATION NUMBER_OF_FRAMES NUMBER_OF_BYTES
Video
ID                                       : 1
Format                                   : AVC
Format/Info                              : Advanced Video Codec
Format profile                           : High@L4.1
Format settings, CABAC                   : Yes
Format settings, ReFrames                : 14 frames
Codec ID                                 : V_MPEG4/ISO/AVC
Duration                                 : 1h 25mn
Bit rate                                 : 2 313 Kbps
Width                                    : 1 040 pixels
Height                                   : 442 pixels
Display aspect ratio                     : 2.35:1
Frame rate mode                          : Constant
Frame rate                               : 23.976 fps
Color space                              : YUV
Chroma subsampling                       : 4:2:0
Bit depth                                : 8 bits
Scan type                                : Progressive
Bits/(Pixel*Frame)                       : 0.210
Stream size                              : 1.34 GiB (61%)
Title                                    : Polnyi.Oblom.Big.Nothing.2006.BDRip-AVC.DUB.AVO.ENG.SUBs.by.dOrOgOi
Writing library                          : x264 core 142 r2431 ac76440
Encoding settings                        : cabac=1 / ref=14 / deblock=1:-2:-2 / analyse=0x3:0x133 / me=umh / subme=11 / psy=1 / psy_rd=1.00:0.10 / mixed_ref=1 / me_range=48 / chroma_me=1 / trellis=2 / 8x8dct=1 / cqm=0 / deadzone=21,11 / fast_pskip=0 / chroma_qp_offset=-3 / threads=12 / lookahead_threads=3 / sliced_threads=0 / nr=0 / decimate=1 / interlaced=0 / bluray_compat=0 / constrained_intra=0 / bframes=14 / b_pyramid=2 / b_adapt=2 / b_bias=0 / direct=3 / weightb=1 / open_gop=0 / weightp=2 / keyint=250 / keyint_min=23 / scenecut=40 / intra_refresh=0 / rc_lookahead=60 / rc=2pass / mbtree=0 / bitrate=2313 / ratetol=1.0 / qcomp=0.60 / qpmin=0 / qpmax=69 / qpstep=4 / cplxblur=20.0 / qblur=0.5 / vbv_maxrate=50000 / vbv_bufsize=62500 / nal_hrd=none / filler=0 / ip_ratio=1.30 / pb_ratio=1.30 / aq=2:1.00
Language                                 : English
Default                                  : Yes
Forced                                   : No
Matrix coefficients                      : BT.709
DURATION                                 : 01:25:33.170000000
NUMBER_OF_FRAMES                         : 123073
NUMBER_OF_BYTES                          : 1482795263
_STATISTICS_WRITING_APP                  : mkvmerge v7.0.0 ('Where We Going') 64bit built on Jun  9 2014 15:16:27
_STATISTICS_WRITING_DATE_UTC             : 2014-07-20 18:58:01
_STATISTICS_TAGS                         : BPS DURATION NUMBER_OF_FRAMES NUMBER_OF_BYTES
Audio #1
ID                                       : 2
Format                                   : AC-3
Format/Info                              : Audio Coding 3
Mode extension                           : CM (complete main)
Format settings, Endianness              : Big
Codec ID                                 : A_AC3
Duration                                 : 1h 25mn
Bit rate mode                            : Constant
Bit rate                                 : 448 Kbps
Channel(s)                               : 6 channels
Channel positions                        : Front: L C R, Side: L R, LFE
Sampling rate                            : 48.0 KHz
Bit depth                                : 16 bits
Compression mode                         : Lossy
Stream size                              : 274 MiB (12%)
Title                                    : DUB
Language                                 : Russian
Default                                  : Yes
Forced                                   : No
Audio #2
ID                                       : 3
Format                                   : AC-3
Format/Info                              : Audio Coding 3
Mode extension                           : CM (complete main)
Format settings, Endianness              : Big
Codec ID                                 : A_AC3
Duration                                 : 1h 25mn
Bit rate mode                            : Constant
Bit rate                                 : 448 Kbps
Channel(s)                               : 6 channels
Channel positions                        : Front: L C R, Side: L R, LFE
Sampling rate                            : 48.0 KHz
Bit depth                                : 16 bits
Compression mode                         : Lossy
Stream size                              : 274 MiB (12%)
Title                                    : Original
Language                                 : English
Default                                  : No
Forced                                   : No
Audio #3
ID                                       : 4
Format                                   : AC-3
Format/Info                              : Audio Coding 3
Mode extension                           : CM (complete main)
Format settings, Endianness              : Big
Codec ID                                 : A_AC3
Duration                                 : 1h 25mn
Bit rate mode                            : Constant
Bit rate                                 : 448 Kbps
Channel(s)                               : 6 channels
Channel positions                        : Front: L C R, Side: L R, LFE
Sampling rate                            : 48.0 KHz
Bit depth                                : 16 bits
Compression mode                         : Lossy
Stream size                              : 274 MiB (12%)
Title                                    : AVO [A. Karpovskii]
Language                                 : Russian
Default                                  : No
Forced                                   : No
Text #1
ID                                       : 5
Format                                   : UTF-8
Codec ID                                 : S_TEXT/UTF8
Codec ID/Info                            : UTF-8 Plain Text
Title                                    : Russian
Language                                 : Russian
Default                                  : No
Forced                                   : No
Text #2
ID                                       : 6
Format                                   : UTF-8
Codec ID                                 : S_TEXT/UTF8
Codec ID/Info                            : UTF-8 Plain Text
Title                                    : English
Language                                 : English
Default                                  : No
Forced                                   : No
Menu
00:00:00.000                             : en:Main Titles
00:06:56.541                             : en:The Trenches
00:13:45.825                             : en:Criminal Material
00:21:54.438                             : en:Security and Happiness
00:29:08.371                             : en:Leaky Ceilings
00:35:06.729                             : en:Police Inspection
00:41:36.994                             : en:Bathroom Break
00:48:52.262                             : en:Standard Procedure
00:56:55.703                             : en:Screwed
01:03:23.424                             : en:Small Time Crook
01:12:07.323                             : en:Empty Chairs
01:18:46.722                             : en:End Credits
--
[Профиль] [ЛС]

Создавать темы 06-Авг-2015 23:18 (спустя 11 месяцев 24 дня)

Топик был перенесен из форума Фильмы до 2014 года в форум Фильмы до 2012 года
sergej644
 
Кто просматривает тему:

Форум Тема Автор Размер
Pop (Pop, Dance) VA - Хиты & Полный Бак (2014) [MP3|256-320 кб/с] sergej644 669 MB
50/50 VA - Хиты и Полный Бак (2015) MP3 достали все 836 MB
Работа с носителями информации VLC Media Player 2.3.1.5 [Последний релиз][Полный][Январь 2016] 2.3.1.5 56813 x86 x64 [26 January 2016, MULTILANG +RUS] TorrentFilm 57 MB
XXXI Летние Олимпийские игры. Рио-де-Жанейро 2016 (Бразилия) XXXI Летние Олимпийские Игры. Рио-де-Жанейро (Бразилия). Велоспорт. Трек. Женщины. Мужчины. Полный день [12.08] (2016) IPTV 1080i BOSS 4.75 GB
XXXI Летние Олимпийские игры. Рио-де-Жанейро 2016 (Бразилия) XXXI Летние Олимпийские Игры. Рио-де-Жанейро (Бразилия). Велоспорт. Трек. Женщины. Мужчины. Полный день [13.08] (2016) IPTV 1080i ODESSA 5.24 GB
XXXI Летние Олимпийские игры. Рио-де-Жанейро 2016 (Бразилия) XXXI Летние Олимпийские Игры. Рио-де-Жанейро (Бразилия). Велоспорт. Трек. Женщины. Мужчины. Полный день [14.08] (2016) IPTV 1080i ODESSA 4.64 GB
XXXI Летние Олимпийские игры. Рио-де-Жанейро 2016 (Бразилия) XXXI Летние Олимпийские Игры. Рио-де-Жанейро (Бразилия). Велоспорт. Трек. Женщины. Мужчины. Полный день [15.08] (2016) IPTV 1080i ODESSA 4.26 GB
Программы [Справочник] Полный курс HTML / CSS / JS / PHP [Android, Multi] TorrentFilm 51 MB
Показать сообщения:    

Текущее время: Сегодня 02:25

Часовой пояс: GMT



Вы не можете начинать темы
Вы не можете отвечать на сообщения
Вы не можете редактировать свои сообщения
Вы не можете удалять свои сообщения
Вы не можете голосовать в опросах
Вы не можете прикреплять файлы к сообщениям
Вы не можете скачивать файлы