Полный абзац / Whole Lotta Sole / Stand Off / (2011) BDRip (720p) от ivandubskoj | GER Transfer | P

 
Автор Сообщение

Russian Mafia ®

Пол:

Стаж: 1 год 8 месяцев

Сообщений: 4247



Награды: 10 (Подробнее)

Mega Seeder 1 (Количество: 1) За внесенный вклад в развитие сайта (Количество: 1) Top Releaser 3 (Количество: 1)
Торрент-статистика

Создавать темы 06-Авг-2016 18:56

[Цитировать]

Информация о фильме
Название: Полный абзац
Оригинальное название: Whole Lotta Sole (Stand Off)
Год выпуска: 2011
Жанр: Драма, комедия
Режиссёр: Терри Джордж
В ролях: Брендан Фрейзер, Колм Мини, Мартин МакКанн, Йайа ДаКоста, Дэвид О'Хара, Майкл Лидж, Конор МакНил, Фрэнки МакКафферти, Руперт Викхэм, Мэри МакКроссен
О фильме: Дело происходит в Северной Ирландии. В центре сюжета — молодой бездельник Джимбо, ступивший на скользкую дорожку азартных игр. Дебют вышел не слишком удачным: Джимбо проигрался в пух и прах, и теперь ему нужно рассчитаться с долгами. Не придумав ничего лучше, парень решает ограбить рыбную лавку, но и тут Джимбо ждут осложнения: предприятие принимает серьезный оборот, и горе-грабителю приходится взять заложников.

Выпущено: Великобритания, Generator Entertainment, Media Pro Six, Menlo Park Productions
Продолжительность: 01:29:22
Перевод: Профессиональный многоголосый
Файл
Качество: BDRip 720p [Исходник: Blu-ray GER 1080p AVC DTS-HD 5.1]
Видео: MPEG-4 AVC, 1280x688 (1.85:1), 5720 Кбит/c, 23.976 кадр/c, 0,271 bit/pixel
Аудио #1: Русский, Dolby AC3, 48000 Гц, 640 Кбит/с, 6 каналов (5.1) - MVO
Аудио #2: Русский, Dolby AC3, 48000 Гц, 640 Кбит/с, 6 каналов (5.1) - Оригинал
Субтитры: Русские, английские (полные, SDH) SRT
Навигация по главам: Есть (Сохранены оригинальные чаптеры, как на Blu-ray)

MediaInfo

General
Unique ID : 230641540495798568418225810436524627986 (0xAD83F1E6AC60991E870C96CC01E85812)
Complete name : Whole.Lotta.Sole.2011.BDRip.720p.mkv
Format : Matroska
Format version : Version 4 / Version 2
File size : 4.37 GiB
Duration : 1h 29mn
Overall bit rate : 6 999 Kbps
Movie name : Полный абзац / Whole Lotta Sole / Stand Off (2011) BDRip (720p) от ivandubskoj | GER Transfer
Encoded date : UTC 2016-08-06 10:37:19
Writing application : mkvmerge v7.9.0 ('Birds') 64bit
Writing library : libebml v1.3.1 + libmatroska v1.4.2
Video
ID : 1
Format : AVC
Format/Info : Advanced Video Codec
Format profile : High@L4.1
Format settings, CABAC : Yes
Format settings, ReFrames : 9 frames
Codec ID : V_MPEG4/ISO/AVC
Duration : 1h 29mn
Bit rate : 5 720 Kbps
Width : 1 280 pixels
Height : 688 pixels
Display aspect ratio : 1.85:1
Frame rate mode : Constant
Frame rate : 23.976 fps
Color space : YUV
Chroma subsampling : 4:2:0
Bit depth : 8 bits
Scan type : Progressive
Bits/(Pixel*Frame) : 0.271
Stream size : 3.48 GiB (80%)
Title : Whole Lotta Sole / Stand Off (2011)
Writing library : x264 core 148 r2597 e86f3a1
Encoding settings : cabac=1 / ref=9 / deblock=1:-3:-3 / analyse=0x3:0x113 / me=umh / subme=11 / psy=1 / psy_rd=1.00:0.10 / mixed_ref=1 / me_range=32 / chroma_me=1 / trellis=2 / 8x8dct=1 / cqm=0 / deadzone=21,11 / fast_pskip=0 / chroma_qp_offset=-3 / threads=6 / lookahead_threads=1 / sliced_threads=0 / nr=0 / decimate=0 / interlaced=0 / bluray_compat=0 / constrained_intra=0 / bframes=8 / b_pyramid=2 / b_adapt=2 / b_bias=0 / direct=3 / weightb=1 / open_gop=0 / weightp=2 / keyint=240 / keyint_min=23 / scenecut=40 / intra_refresh=0 / rc_lookahead=40 / rc=2pass / mbtree=0 / bitrate=5720 / ratetol=1.0 / qcomp=0.60 / qpmin=0 / qpmax=69 / qpstep=4 / cplxblur=20.0 / qblur=0.5 / vbv_maxrate=50000 / vbv_bufsize=62500 / nal_hrd=none / filler=0 / ip_ratio=1.40 / pb_ratio=1.30 / aq=1:1.00
Language : English
Default : Yes
Forced : No
Audio #1
ID : 2
Format : AC-3
Format/Info : Audio Coding 3
Mode extension : CM (complete main)
Format settings, Endianness : Big
Codec ID : A_AC3
Duration : 1h 29mn
Bit rate mode : Constant
Bit rate : 640 Kbps
Channel(s) : 6 channels
Channel positions : Front: L C R, Side: L R, LFE
Sampling rate : 48.0 KHz
Bit depth : 16 bits
Compression mode : Lossy
Stream size : 409 MiB (9%)
Title : MVO
Language : Russian
Default : Yes
Forced : No
Audio #2
ID : 3
Format : AC-3
Format/Info : Audio Coding 3
Mode extension : CM (complete main)
Format settings, Endianness : Big
Codec ID : A_AC3
Duration : 1h 29mn
Bit rate mode : Constant
Bit rate : 640 Kbps
Channel(s) : 6 channels
Channel positions : Front: L C R, Side: L R, LFE
Sampling rate : 48.0 KHz
Bit depth : 16 bits
Compression mode : Lossy
Stream size : 409 MiB (9%)
Title : Original
Language : English
Default : No
Forced : No
Text #1
ID : 4
Format : UTF-8
Codec ID : S_TEXT/UTF8
Codec ID/Info : UTF-8 Plain Text
Title : Full
Language : Russian
Default : No
Forced : No
Text #2
ID : 5
Format : UTF-8
Codec ID : S_TEXT/UTF8
Codec ID/Info : UTF-8 Plain Text
Title : Full
Language : English
Default : No
Forced : No
Text #3
ID : 6
Format : UTF-8
Codec ID : S_TEXT/UTF8
Codec ID/Info : UTF-8 Plain Text
Title : Full [SDH]
Language : English
Default : No
Forced : No
Menu
00:00:00.000 : en:Chapter 01
00:08:13.451 : en:Chapter 02
00:17:14.282 : en:Chapter 03
00:24:24.713 : en:Chapter 04
00:30:32.497 : en:Chapter 05
00:39:16.520 : en:Chapter 06
00:49:03.982 : en:Chapter 07
00:56:52.575 : en:Chapter 08
01:04:41.544 : en:Chapter 09
01:12:34.683 : en:Chapter 10
01:19:06.783 : en:Chapter 11
01:25:48.893 : en:Chapter 12

Скриншоты



Автор рипа - ivandubskoj
[Профиль] [ЛС]
Кто просматривает тему:

Форум Тема Автор Размер
Pop (Pop, Dance) VA - Хиты & Полный Бак (2014) [MP3|256-320 кб/с] sergej644 669 MB
50/50 VA - Хиты и Полный Бак (2015) MP3 достали все 836 MB
Работа с носителями информации VLC Media Player 2.3.1.5 [Последний релиз][Полный][Январь 2016] 2.3.1.5 56813 x86 x64 [26 January 2016, MULTILANG +RUS] TorrentFilm 57 MB
XXXI Летние Олимпийские игры. Рио-де-Жанейро 2016 (Бразилия) XXXI Летние Олимпийские Игры. Рио-де-Жанейро (Бразилия). Велоспорт. Трек. Женщины. Мужчины. Полный день [12.08] (2016) IPTV 1080i BOSS 4.75 GB
XXXI Летние Олимпийские игры. Рио-де-Жанейро 2016 (Бразилия) XXXI Летние Олимпийские Игры. Рио-де-Жанейро (Бразилия). Велоспорт. Трек. Женщины. Мужчины. Полный день [13.08] (2016) IPTV 1080i ODESSA 5.24 GB
XXXI Летние Олимпийские игры. Рио-де-Жанейро 2016 (Бразилия) XXXI Летние Олимпийские Игры. Рио-де-Жанейро (Бразилия). Велоспорт. Трек. Женщины. Мужчины. Полный день [14.08] (2016) IPTV 1080i ODESSA 4.64 GB
XXXI Летние Олимпийские игры. Рио-де-Жанейро 2016 (Бразилия) XXXI Летние Олимпийские Игры. Рио-де-Жанейро (Бразилия). Велоспорт. Трек. Женщины. Мужчины. Полный день [15.08] (2016) IPTV 1080i ODESSA 4.26 GB
Программы [Справочник] Полный курс HTML / CSS / JS / PHP [Android, Multi] TorrentFilm 51 MB
Показать сообщения:    

Текущее время: Сегодня 13:58

Часовой пояс: GMT



Вы не можете начинать темы
Вы не можете отвечать на сообщения
Вы не можете редактировать свои сообщения
Вы не можете удалять свои сообщения
Вы не можете голосовать в опросах
Вы не можете прикреплять файлы к сообщениям
Вы не можете скачивать файлы