Полное превращение (Филипп Коршунов) [2015, Россия, комедия, фантастика, HDTV 1080i]

 
Автор Сообщение

TorrentFilm ®

Пол:

Стаж: 2 года

Сообщений: 7741



Награды: Нет

Торрент-статистика

Создавать темы 12-Мар-2016 00:08

[Цитировать]

Полное превращение
Страна: Россия
Студия: Каро Продакшн, Фонд Кино
Жанр: комедия, фантастика
Год выпуска: 2015
Продолжительность: 01:20:04
Оригинальная аудиодорожка: русский
Cубтитры: Нет
Режиссер: Филипп Коршунов
В ролях:
Олег Гаас
Арина Постникова
Наиль Абдрахманов
Павел Абдалов
Егор Сальников
Виталий Кудрявцев
Ирина Крутик
Сергей Николаев
Александра Булычёва
Татьяна Оквамо
Описание: Главный герой — незадачливый риелтор Дима, жизнь которого — одна сплошная проблема: с работой, с родителями, с девушками…. Он так устал от себя и хочет стать кем-то другим, что случай… предоставляет ему такую возможность. Из рук чудаковатого ученого Дима получает прибор Превращатель, способный превращать любого человека в кого угодно. Пытаясь исправить свои проблемы, Дима меняет обликами двенадцать разных персонажей, и вовлекается в водоворот комических ситуаций, когда сломавшийся прибор начинает совершать превращения по своей воле. Постоянно превращаясь, балансируя на грани разоблачения, Дима распутывает свои проблемы и находит самого себя — доброго, умного парня, который возвращает страсть охладевшим родителям, строит карьеру и находит любовь.
Доп. информация: Запись со спутника Eutelsat 36A/B, телеканал "Наше HD".
Сэмпл: http://multi-up.com/1092450
Релиз:
Тип релиза: HDTV 1080i
Контейнер: MKV
Видео: AVC, 1920x1080i, 25.000 fps, 5238 kbps
Аудио: Русский (Dolby AC3 5.1, 48 kHz, 448 kbps)

MediaInfo

Общее
Уникальный идентификатор : 186555232058342558734060487884590525517 (0x8C593B13C3A0060E8E57E1A7F1B3AC4D)
Полное имя : E:\Полное превращение_2015_HDTV_1080i.mkv
Формат : Matroska
Версия формата : Version 2
Размер файла : 3,24 Гбайт
Продолжительность : 1 ч. 20 м.
Общий поток : 5802 Кбит/сек
Дата кодирования : UTC 2016-03-07 10:00:04
Программа кодирования : mkvmerge v5.6.0 ('Kenya Kane') built on May 27 2012 16:44:04
Библиотека кодирования : libebml v1.2.3 + libmatroska v1.3.0
Видео
Идентификатор : 1
Формат : AVC
Формат/Информация : Advanced Video Codec
Профиль формата : Main@L4
Параметр CABAC формата : Да
Параметр ReFrames формата : 3 кадра
Идентификатор кодека : V_MPEG4/ISO/AVC
Продолжительность : 1 ч. 20 м.
Битрейт : 5238 Кбит/сек
Ширина : 1920 пикселей
Высота : 1080 пикселей
Соотношение сторон : 16:9
Режим частоты кадров : Постоянный
Частота кадров : 25,000 кадров/сек
Стандарт вещания : Component
Цветовое пространство : YUV
Субдискретизация насыщенности : 4:2:0
Битовая глубина : 8 бит
Тип развёртки : Чересстрочная
Метод сохранения типа развёртки : Раздельные поля
Порядок развёртки : Верхнее поле первое
Бит/(Пиксели*Кадры) : 0.101
Размер потока : 2,93 Гбайт (90%)
Default : Да
Forced : Нет
Цветовой диапазон : Limited
Основные цвета : BT.709
Характеристики трансфера : BT.709
Коэффициенты матрицы : BT.709
Аудио
Идентификатор : 2
Формат : AC-3
Формат/Информация : Audio Coding 3
Расширение режима : CM (complete main)
Параметр Endianness формата : Big
Идентификатор кодека : A_AC3
Продолжительность : 1 ч. 20 м.
Вид битрейта : Постоянный
Битрейт : 448 Кбит/сек
Каналы : 6 каналов
Расположение каналов : Front: L C R, Side: L R, LFE
Частота : 48,0 КГц
Частота кадров : 31,250 кадров/сек (1536 spf)
Метод сжатия : С потерями
Задержка видео : 53 мс.
Размер потока : 257 Мбайт (8%)
Язык : Russian
Default : Да
Forced : Нет

Скриншоты

[Профиль] [ЛС]
Показать сообщения:    

Текущее время: Сегодня 18:57

Часовой пояс: GMT



Вы не можете начинать темы
Вы не можете отвечать на сообщения
Вы не можете редактировать свои сообщения
Вы не можете удалять свои сообщения
Вы не можете голосовать в опросах
Вы не можете прикреплять файлы к сообщениям
Вы не можете скачивать файлы