Полное превращение (Филипп Коршунов) [2015, Россия, комедия, фантастика, DVD5] R5 Original Rus

 
Автор Сообщение

TorrentFilm ®

Пол:

Стаж: 2 года

Сообщений: 7741



Награды: Нет

Торрент-статистика

Создавать темы 22-Июл-2015 00:06

[Цитировать]

-Полное превращение -Страна: Россия
Студия: КАРО-Продакшн
Жанр: комедия, фантастика
Год выпуска: 2015
Российская премьера: 19 марта 2015, «Каропрокат»
Дата выхода DVD: 2 июня 2015, «CD Land»
Продолжительность: 01:20:27
Перевод: Оригинал [Лицензия]
Cубтитры: нет
Оригинальная аудиодорожка: русский-Режиссер: Филипп Коршунов-В ролях: Павел Абдалов, Виталий Кудрявцев, Александра Булычёва, Дмитрий Варшавский, Арина Постникова, Олег Гаас, Наиль Абдрахманов, Ирина Крутик, Сергей Николаев, Александр Наумов-Описание: Главный герой — незадачливый риелтор Дима, жизнь которого — одна сплошная проблема: с работой, с родителями, с девушками…. Он так устал от себя и хочет стать кем-то другим, что случай… предоставляет ему такую возможность. Из рук чудаковатого ученого Дима получает прибор Превращатель, способный превращать любого человека в кого угодно. Пытаясь исправить свои проблемы, Дима меняет обликами двенадцать разных персонажей, и вовлекается в водоворот комических ситуаций, когда сломавшийся прибор начинает совершать превращения по своей воле. Постоянно превращаясь, балансируя на грани разоблачения, Дима распутывает свои проблемы и находит самого себя — доброго, умного парня, который возвращает страсть охладевшим родителям, строит карьеру и находит любовь.-Бонусы: нет- -Релиз группы: -Качество: DVD5 R5
Формат: DVD-Video
Видео кодек: MPEG2
Аудио кодек: AC3
Видео: PAL 16:9 (720x576(0.619)) MPEG Video, 25,000 кадр/сек, 6416 Кбит/сек
Аудио: Russian (Dolby AC3, 2 ch) 192 Кбит/сек, 48,0 КГц--

DVDInfo

Title: Рабочий
Size: 3.94 Gb ( 4 127 044 KBytes ) - DVD-5
Enabled regions: 1, 2, 3, 4, 5, 6, 7, 8
VTS_01 :
Play Length: 00:00:19
Video: PAL 16:9 (720x576) VBR, Auto Pan&Scan, Auto Letterboxed
Audio:
Not specified (Dolby AC3, 2 ch)
VTS_02 :
Play Length: 01:20:27
Video: PAL 16:9 (720x576) VBR, Auto Pan&Scan
Audio:
Not specified (Dolby AC3, 2 ch)
Menu Video:
PAL 16:9 (720x576) VBR
Auto Pan&Scan, Auto Letterboxed
Menu Subtitles:
Not specified
Menu English Language Unit :
Root Menu

MediaInfo

Общее
Полное имя : F:\Новинки 2015\Polnoe.prevrashhenie.2015.DVD5\VIDEO_TS\VTS_02_1.VOB
Формат : MPEG-PS
Размер файла : 1024 Мбайт
Продолжительность : 21 м.
Режим общего битрейта : Переменный
Общий поток : 6742 Кбит/сек
Видео
Идентификатор : 224 (0xE0)
Формат : MPEG Video
Версия формата : Version 2
Профиль формата : Main@Main
Параметр BVOP формата : Да
Параметр матрицы формата : Выборочная
Параметр GOP формата : M=3, N=12
Структура изображения : Frame
Продолжительность : 21 м.
Вид битрейта : Переменный
Битрейт : 6416 Кбит/сек
Максимальный битрейт : 9000 Кбит/сек
Ширина : 720 пикселей
Высота : 576 пикселей
Соотношение сторон : 16:9
Частота кадров : 25,000 кадров/сек
Стандарт вещания : PAL
Цветовое пространство : YUV
Субдискретизация насыщенности : 4:2:0
Битовая глубина : 8 бит
Тип развёртки : Чересстрочная
Порядок развёртки : Верхнее поле первое
Метод сжатия : С потерями
Бит/(Пиксели*Кадры) : 0.619
Временной код первого кадра : 00:57:36:00
Оригинал временного кода : Group of pictures header
GOP, открыто/закрыто : Закрыто
Размер потока : 974 Мбайт (95%)
Основные цвета : BT.601 PAL
Характеристики трансфера : BT.470 System B, BT.470 System G
Коэффициенты матрицы : BT.601
Аудио
Идентификатор : 189 (0xBD)-128 (0x80)
Формат : AC-3
Формат/Информация : Audio Coding 3
Расширение режима : CM (complete main)
Параметр Endianness формата : Big
Режим смешивания : DVD-Video
Продолжительность : 21 м.
Вид битрейта : Постоянный
Битрейт : 192 Кбит/сек
Каналы : 2 канала
Расположение каналов : Front: L R
Частота : 48,0 КГц
Битовая глубина : 16 бит
Метод сжатия : С потерями
Размер потока : 29,1 Мбайт (3%)

Скриншоты меню

Скриншоты фильма


-
-Раздача от группы:
[Профиль] [ЛС]

Создавать темы 06-Авг-2015 23:37 (спустя 15 дней)

Топик был перенесен из форума Фильмы (HD DVD, Blu-ray и BDRemux) в форум Фильмы (DVD 5/9)
sergej644
 
Показать сообщения:    

Текущее время: Сегодня 06:17

Часовой пояс: GMT



Вы не можете начинать темы
Вы не можете отвечать на сообщения
Вы не можете редактировать свои сообщения
Вы не можете удалять свои сообщения
Вы не можете голосовать в опросах
Вы не можете прикреплять файлы к сообщениям
Вы не можете скачивать файлы