Полное затмение / Blackout / Total Blackout (Рене Манзор / René Manzor) [2009, Франция, фантастика, боевик, триллер, драма, SATRip] MVO

 
Автор Сообщение

TorrentFilm ®

Пол:

Стаж: 2 года

Сообщений: 7741



Награды: Нет

Торрент-статистика

Создавать темы 20-Фев-2016 00:08

[Цитировать]

Полное затмение / Blackout / Total Blackout
Страна: Франция
Жанр: фантастика, боевик, триллер, драма
Год выпуска: 2009
Продолжительность: 01:35:23
Перевод: Профессиональный (многоголосый закадровый)
Cубтитры: нет
Оригинальная аудиодорожка: нет
Режиссер: Рене Манзор / René Manzor
В ролях: Кристиана Реали
Флоран Паньи
Gauthier Battoue
Tom Méziane
Жан-Пьер Мартен
Ян Сандберг
Антуан Кэхэн
Федор Аткин
Сюзанн Обер
Надя Барантен
...
Описание: На расстоянии 150 миллиардов километров от Земли геомагнитные бури извергаются из поверхности Солнца, когда они достигают земли, влияние на живущих невелико, но целая энергосеть может быть выведена из строя. Сегодня на Земле обычный день, но через 2 часа полное отключение электричества лишает энергии 200 миллионов европейцев, все больницы, аэропорты, экстренные службы и средства связи прекращают работу. Европа погружается в апокалиптические времена. В центре этого беспримерного бедствия борются за выживание два потерявшихся ребенка, сбежавший заключенный, женщина на последних днях беременности и несколько других.
Сэмпл: http://multi-up.com/1089704
Качество видео: SATRip
Формат видео: AVI
Видео: MPEG4, XviD, 720x400 (16:9), 25.000 fps, 1 978 Kbps (0.275 bit/pixel)
Аудио: AC-3, 48.0 KHz, 2 ch, 192 Kbps, CBR

MediaInfo

Общее
Полное имя : N:\Полное затмение.avi
Формат : AVI
Формат/Информация : Audio Video Interleave
Размер файла : 1,45 Гбайт
Продолжительность : 1 ч. 35 м.
Общий поток : 2180 Кбит/сек
Название фильма : Полное затмение / Blackout / Total Blackout (2009)
Программа кодирования : VirtualDubMod 1.5.10.2 (build 2540/release)
Библиотека кодирования : VirtualDubMod build 2540/release
Авторское право : miha2154
Видео
Идентификатор : 0
Формат : MPEG-4 Visual
Профиль формата : Advanced Simple@L5
Параметр BVOP формата : 1
Параметр QPel формата : Нет
Параметр GMC формата : Без точки перехода
Параметр матрицы формата : Выборочная
Идентификатор кодека : XVID
Идентификатор кодека/Подсказка : XviD
Продолжительность : 1 ч. 35 м.
Битрейт : 1978 Кбит/сек
Ширина : 720 пикселей
Высота : 400 пикселей
Соотношение сторон : 16:9
Частота кадров : 25,000 кадров/сек
Цветовое пространство : YUV
Субдискретизация насыщенности : 4:2:0
Битовая глубина : 8 бит
Тип развёртки : Прогрессивная
Метод сжатия : С потерями
Бит/(Пиксели*Кадры) : 0.275
Размер потока : 1,32 Гбайт (91%)
Библиотека кодирования : XviD 65
Аудио
Идентификатор : 1
Формат : AC-3
Формат/Информация : Audio Coding 3
Расширение режима : CM (complete main)
Параметр Endianness формата : Big
Идентификатор кодека : 2000
Продолжительность : 1 ч. 35 м.
Вид битрейта : Постоянный
Битрейт : 192 Кбит/сек
Каналы : 2 канала
Расположение каналов : Front: L R
Частота : 48,0 КГц
Частота кадров : 31,250 кадров/сек (1536 spf)
Метод сжатия : С потерями
Размер потока : 131 Мбайт (9%)
Выравнивание : Разделение по промежуткам
Продолжительность промежутка : 40 мс. (1,00 видеокадр)
Время предзагрузки промежутка : 500 мс.
Заголовок : Профессиональный (многоголосый закадровый)

Скриншоты


[Профиль] [ЛС]

Создавать темы 12-Июн-2016 07:56 (спустя 3 месяца 21 день)

Топик был перенесен из форума Фильмы 2011 года в форум Фильмы 2009 года
Russian Mafia
 
Показать сообщения:    

Текущее время: Сегодня 07:15

Часовой пояс: GMT



Вы не можете начинать темы
Вы не можете отвечать на сообщения
Вы не можете редактировать свои сообщения
Вы не можете удалять свои сообщения
Вы не можете голосовать в опросах
Вы не можете прикреплять файлы к сообщениям
Вы не можете скачивать файлы