Полиция / Police (1985) BDRip 1080p by msltel

 
Автор Сообщение

Russian Mafia ®

Пол:

Стаж: 1 год 8 месяцев

Сообщений: 4247



Награды: 10 (Подробнее)

За внесенный вклад в развитие сайта (Количество: 1) Top Releaser 2 (Количество: 1) Mega Seeder 2 (Количество: 1)
Торрент-статистика

Создавать темы 15-Сен-2015 07:49

[Цитировать]

Название: Полиция
Оригинальное название: Police
Год выпуска: 1985
Страна: Франция
Жанр: триллер, драма, мелодрама, криминал
Продолжительность: 01:53:53
Перевод: профессиональный многоголосый
Режиссёр: Морис Пиала
В ролях: Жерар Депардьё, Софи Марсо, Ришар Анконина, Паскаль Рокар, Сандрин Боннэр, Фрэнк Карауи, Джонатан Леина, Жак Мату, Бернард Фузельер, Абдель Кадер Туати, Бешир Идани, Реми Карпентье
Описание: Инспектор полиции Луис Венсан Маньин не склонен к сантиментам. Он груб, жесток и циничен. Расследуя дело о торговцах наркотиками из Туниса, он знакомится со странной и непредсказуемой девушкой Корней. На допросе, где они впервые встретились, Луису и в голову не могло прийти, что страсть, которая соединит их, смертельно опасна для жизни...

Качество: BDRip 1080p Сравнение с исходником
Формат: MKV
Видео: MPEG-4 AVC, 15 Mбит/с, 1792x1080, 24 кадра/с
Аудио 1: русский, AC3, 192 kbps, 2 ch, 48 kHz [профессиональный многоголосый]
Аудио 2: французский, DTS, 768 kbps, 1 ch, 48 kHz [оригинал]
Субтитры 1: русские
Субтитры 2: английские

Награды

Сезар, 1986 год
Номинации (2):
Лучший актер (Жерар Депардье)
Лучший монтаж
Венецианский кинофестиваль, 1985 год
Победитель (1):
Серебряная премия за лучшую мужскую роль ( Жерар Депардье )

Инфо-файл

Общее
Уникальный идентификатор : 243300103965398604297455097981522761284 (0xB709E5441279BC30BCBB2EA9012D5644)
Полное имя : D:VideoПолиция.1985.BDRip.1080p.mkv
Формат : Matroska
Версия формата : Version 4 / Version 2
Размер файла : 13,0 Гбайт
Продолжительность : 1 ч. 53 м.
Общий поток : 16,3 Мбит/сек
Название фильма : BDRip -- STarankov
Дата кодирования : UTC 2015-09-14 14:07:22
Программа кодирования : mkvmerge v8.2.0 ('World of Adventure') 64bit
Библиотека кодирования : libebml v1.3.1 + libmatroska v1.4.2
DURATION : 01:53:53.046000000
NUMBER_OF_FRAMES : 640598
NUMBER_OF_BYTES : 655972412
_STATISTICS_WRITING_APP : mkvmerge v8.2.0 ('World of Adventure') 64bit
_STATISTICS_WRITING_DATE_UTC : 2015-09-14 14:07:22
_STATISTICS_TAGS : BPS DURATION NUMBER_OF_FRAMES NUMBER_OF_BYTES
Видео
Идентификатор : 1
Формат : AVC
Формат/Информация : Advanced Video Codec
Профиль формата : High@L4.1
Параметр CABAC формата : Да
Параметр ReFrames формата : 4 кадра
Идентификатор кодека : V_MPEG4/ISO/AVC
Продолжительность : 1 ч. 53 м.
Битрейт : 15,0 Мбит/сек
Ширина : 1792 пикселя
Высота : 1080 пикселей
Соотношение сторон : 5:3
Режим частоты кадров : Постоянный
Частота кадров : 24,000 кадра/сек
Цветовое пространство : YUV
Субдискретизация насыщенности : 4:2:0
Битовая глубина : 8 бит
Тип развёртки : Прогрессивная
Бит/(Пиксели*Кадры) : 0.323
Размер потока : 12,0 Гбайт (92%)
Библиотека кодирования : x264 core 146 r2538 121396c
Настройки программы : cabac=1 / ref=4 / deblock=1:-2:-2 / analyse=0x3:0x113 / me=umh / subme=10 / psy=1 / psy_rd=1.00:0.15 / mixed_ref=1 / me_range=32 / chroma_me=1 / trellis=2 / 8x8dct=1 / cqm=0 / deadzone=21,11 / fast_pskip=1 / chroma_qp_offset=-3 / threads=6 / lookahead_threads=1 / sliced_threads=0 / nr=0 / decimate=1 / interlaced=0 / bluray_compat=0 / constrained_intra=0 / bframes=9 / b_pyramid=2 / b_adapt=2 / b_bias=0 / direct=1 / weightb=1 / open_gop=0 / weightp=2 / keyint=230 / keyint_min=23 / scenecut=40 / intra_refresh=0 / rc_lookahead=40 / rc=crf / mbtree=0 / crf=19.8 / qcomp=0.60 / qpmin=0 / qpmax=69 / qpstep=4 / vbv_maxrate=40000 / vbv_bufsize=50000 / crf_max=0.0 / nal_hrd=none / filler=0 / ip_ratio=1.40 / pb_ratio=1.30 / aq=1:1.00
Язык : French
Default : Да
Forced : Нет
DURATION : 01:53:53.042000000
NUMBER_OF_FRAMES : 163993
NUMBER_OF_BYTES : 13106054933
_STATISTICS_WRITING_APP : mkvmerge v8.2.0 ('World of Adventure') 64bit
_STATISTICS_WRITING_DATE_UTC : 2015-09-14 14:07:22
_STATISTICS_TAGS : BPS DURATION NUMBER_OF_FRAMES NUMBER_OF_BYTES
Аудио #1
Идентификатор : 2
Формат : AC-3
Формат/Информация : Audio Coding 3
Расширение режима : CM (complete main)
Параметр Endianness формата : Big
Идентификатор кодека : A_AC3
Продолжительность : 1 ч. 53 м.
Вид битрейта : Постоянный
Битрейт : 192 Кбит/сек
Каналы : 2 канала
Расположение каналов : Front: L R
Частота : 48,0 КГц
Метод сжатия : С потерями
Размер потока : 156 Мбайт (1%)
Заголовок : MVO
Язык : Russian
Default : Да
Forced : Нет
Аудио #2
Идентификатор : 3
Формат : DTS
Формат/Информация : Digital Theater Systems
Режим : 16
Параметр Endianness формата : Big
Идентификатор кодека : A_DTS
Продолжительность : 1 ч. 53 м.
Вид битрейта : Постоянный
Битрейт : 768 Кбит/сек
Каналы : 1 канал
Расположение каналов : Front: C
Частота : 48,0 КГц
Битовая глубина : 16 бит
Метод сжатия : С потерями
Размер потока : 626 Мбайт (5%)
Заголовок : Original
Язык : French
Default : Нет
Forced : Нет
Текст #1
Идентификатор : 4
Формат : UTF-8
Идентификатор кодека : S_TEXT/UTF8
Идентификатор кодека/Информация : UTF-8 Plain Text
Заголовок : русский
Язык : Russian
Default : Нет
Forced : Нет
Текст #2
Идентификатор : 5
Формат : UTF-8
Идентификатор кодека : S_TEXT/UTF8
Идентификатор кодека/Информация : UTF-8 Plain Text
Заголовок : английский
Default : Нет
Forced : Нет

Скриншоты

[Профиль] [ЛС]
Кто просматривает тему:

Форум Тема Автор Размер
Боевики, детективы, триллеры Без единого свидетеля (Джордж Элизабет) [2015, Полицейский детектив, аудиокнига, MP3, 96 kbps, Ерисанова Ирина] Magnat 1.23 GB
Фантастика и фэнтези Бен Уинтерс – Последний полицейский (2015) MP3 Swager 534 MB
Фильмы (HD Rips | 720p, 1080p) Бриллиантовый полицейский / Blue Streak (1999) BDRip 720p sergej644 4.37 GB
Фильмы (HD DVD, Blu-ray и BDRemux) Бриллиантовый полицейский / Blue Streak (1999) Blu-Ray Remux | D, 2xP, 2xA Russian Mafia 25.86 GB
Фильмы 2009 года Бруклинские полицейские / Brooklyn\'s Finest (Антуан Фукуа / Antoine Fuqua) [2009, США, триллер, драма, криминал, DVDRip] [Open Matte] AVO (Иванов) TorrentFilm 1.47 GB
Фильмы 2009 года Бруклинские полицейские / Brooklyn\'s Finest (Антуан Фукуа / Antoine Fuqua) [2009, США, триллер, драма, криминал, DVDRip] [Open Matte] Dub + AVO (Иванов) TorrentFilm 2.17 GB
Фильмы (HD Rips | 720p, 1080p) Волк-полицейский / WolfCop (2014) BDRip 720p | L1 sergej644 3.38 GB
Фильмы 2014 года Волк-полицейский / WolfCop (2014) HDRip-AVC от АРХАНГЕЛ | L1 sergej644 1.5 GB
Показать сообщения:    

Текущее время: Сегодня 22:08

Часовой пояс: GMT



Вы не можете начинать темы
Вы не можете отвечать на сообщения
Вы не можете редактировать свои сообщения
Вы не можете удалять свои сообщения
Вы не можете голосовать в опросах
Вы не можете прикреплять файлы к сообщениям
Вы не можете скачивать файлы