Полиция / Police (1985) BDRip 720p от MediaClub | P2

 
Автор Сообщение

sergej644 ®

Пол:

Стаж: 4 года 11 месяцев

Сообщений: 6040

Откуда: Soviet Union



Награды: Нет

Торрент-статистика

Создавать темы 08-Фев-2015 11:48

[Цитировать]

Информация о фильме
Название: Полиция
Оригинальное название: Police
Год выхода: 1985
Жанр: Триллер, драма, мелодрама, криминал
Режиссер: Морис Пиала
В ролях: Жерар Депардьё, Софи Марсо, Ришар Анконина, Паскаль Рокар, Сандрин Боннэр, Фрэнк Карауи, Джонатан Леина, Жак Мату, Бернард Фузельер, Абдель Кадер Туати, Бешир Идани, Реми Карпентье
О фильме:
Инспектор полиции Луис Венсан Маньин не склонен к сантиментам — он груб, жесток и циничен. Расследуя дело о торговцах наркотиками из Туниса, он знакомится со странной и непредсказуемой девушкой Норией. На допросе, где они впервые встретились, Луису и в голову не могло прийти, что страсть, которая соединит их, смертельно опасна для жизни…

Страна: Франция / Gaumont, TF1 Films Production
Продолжительность: 01:53:53
Перевод: Профессиональный двухголосый
Файл
Качество: BDRip 720p
Видео: MPEG-4 AVC, 8140 Кбит/с, 1196x720, 24.000 кадр/с
Аудио #1: Русский (AC3, 2 ch, 192 Кбит/с) / Профессиональный двухголосый
Аудио #2: Французский (DTS, 1 ch, 755 Кбит/с)
Субтитры: Английские
Семпл

MI

---[Information] [10.09.2014 9:45:10] x264 [info]: frame I:817 Avg QP:15.17 size:133543
---[Information] [10.09.2014 9:45:10] x264 [info]: frame P:31501 Avg QP:17.64 size: 75718
---[Information] [10.09.2014 9:45:10] x264 [info]: frame B:131675 Avg QP:19.63 size: 33837
---[Information] [10.09.2014 9:45:10] x264 [info]: consecutive B-frames: 0.7% 1.0% 5.3% 11.8% 15.3% 58.2% 4.8% 0.4% 1.4% 1.0%
---[Information] [10.09.2014 9:45:10] x264 [info]: mb I I16..4: 1.8% 90.9% 7.3%
---[Information] [10.09.2014 9:45:10] x264 [info]: mb P I16..4: 0.1% 20.4% 0.5% P16..4: 23.9% 36.8% 17.8% 0.0% 0.0% skip: 0.4%
---[Information] [10.09.2014 9:45:10] x264 [info]: mb B I16..4: 0.0% 1.8% 0.0% B16..8: 43.1% 26.8% 8.6% direct: 8.6% skip:11.0% L0:45.3% L1:44.5% BI:10.2%
---[Information] [10.09.2014 9:45:10] x264 [info]: 8x8 transform intra:96.7% inter:56.3%
---[Information] [10.09.2014 9:45:10] x264 [info]: direct mvs spatial:97.4% temporal:2.6%
---[Information] [10.09.2014 9:45:10] x264 [info]: coded y,uvDC,uvAC intra: 99.0% 88.6% 66.4% inter: 56.7% 30.7% 7.9%
---[Information] [10.09.2014 9:45:10] x264 [info]: i16 v,h,dc,p: 26% 16% 9% 49%
---[Information] [10.09.2014 9:45:10] x264 [info]: i8 v,h,dc,ddl,ddr,vr,hd,vl,hu: 8% 6% 10% 11% 14% 14% 13% 12% 12%
---[Information] [10.09.2014 9:45:10] x264 [info]: i4 v,h,dc,ddl,ddr,vr,hd,vl,hu: 7% 6% 2% 10% 19% 17% 15% 12% 11%
---[Information] [10.09.2014 9:45:10] x264 [info]: i8c dc,h,v,p: 47% 19% 18% 16%
---[Information] [10.09.2014 9:45:10] x264 [info]: Weighted P-Frames: Y:1.6% UV:0.5%
---[Information] [10.09.2014 9:45:10] x264 [info]: ref P L0: 34.6% 8.0% 19.0% 9.5% 8.2% 6.6% 6.1% 4.0% 3.7% 0.3% 0.0%
---[Information] [10.09.2014 9:45:10] x264 [info]: ref B L0: 67.8% 12.4% 7.3% 4.2% 3.3% 2.8% 1.6% 0.6%
---[Information] [10.09.2014 9:45:10] x264 [info]: ref B L1: 92.7% 7.3%
---[Information] [10.09.2014 9:45:10] x264 [info]: kb/s:8136.60
Format : Matroska
Format version : Version 4 / Version 2
File size : 7.24 GiB
Duration : 1h 53mn
Overall bit rate : 9 099 Kbps
Movie name : Encode by Odessit
Encoded date : UTC 2014-09-15 02:53:35
Writing application : mkvmerge v6.8.0 ('Theme for Great Cities') 64bit built on Mar 2 2014 21:34:26
Writing library : libebml v1.3.0 + libmatroska v1.4.1
Video
ID : 1
Format : AVC
Format/Info : Advanced Video Codec
Format profile : High@L4.1
Format settings, CABAC : Yes
Format settings, ReFrames : 9 frames
Codec ID : V_MPEG4/ISO/AVC
Duration : 1h 53mn
Bit rate : 8 140 Kbps
Width : 1 196 pixels
Height : 720 pixels
Display aspect ratio : 1.661
Frame rate : 24.000 fps
Color space : YUV
Chroma subsampling : 4:2:0
Bit depth : 8 bits
Scan type : Progressive
Bits/(Pixel*Frame) : 0.394
Stream size : 6.34 GiB (88%)
Writing library : x264 core 142 r2453kMod ea0ca51
Encoding settings : cabac=1 / ref=9 / deblock=1:-3:-3 / analyse=0x3:0x113 / me=umh / subme=11 / psy=1 / fade_compensate=0.00 / psy_rd=1.07:0.00 / mixed_ref=1 / me_range=48 / chroma_me=1 / trellis=2 / 8x8dct=1 / cqm=0 / deadzone=21,11 / fast_pskip=0 / chroma_qp_offset=-2 / threads=6 / lookahead_threads=1 / sliced_threads=0 / nr=0 / decimate=0 / interlaced=0 / bluray_compat=0 / constrained_intra=0 / fgo=0 / bframes=9 / b_pyramid=2 / b_adapt=2 / b_bias=0 / direct=3 / weightb=1 / open_gop=0 / weightp=2 / keyint=240 / keyint_min=24 / scenecut=40 / intra_refresh=0 / rc_lookahead=80 / rc=2pass / mbtree=0 / bitrate=8140 / ratetol=1.0 / qcomp=0.70 / qpmin=0 / qpmax=69 / qpstep=4 / cplxblur=20.0 / qblur=0.5 / vbv_maxrate=62500 / vbv_bufsize=78125 / nal_hrd=none / filler=0 / ip_ratio=1.40 / pb_ratio=1.30 / aq=2:0.80
Language : English
Color primaries : BT.709
Transfer characteristics : BT.709
Matrix coefficients : BT.709
Audio #1
ID : 2
Format : AC-3
Format/Info : Audio Coding 3
Mode extension : CM (complete main)
Codec ID : A_AC3
Duration : 1h 53mn
Bit rate mode : Constant
Bit rate : 192 Kbps
Channel(s) : 2 channels
Channel positions : Front: L R
Sampling rate : 48.0 KHz
Bit depth : 16 bits
Compression mode : Lossy
Stream size : 156 MiB (2%)
Title : MVO
Language : Russian
Audio #2
ID : 3
Format : DTS
Format/Info : Digital Theater Systems
Codec ID : A_DTS
Duration : 1h 53mn
Bit rate mode : Constant
Bit rate : 755 Kbps
Channel(s) : 1 channel
Channel positions : Front: C
Sampling rate : 48.0 KHz
Bit depth : 16 bits
Compression mode : Lossy
Stream size : 615 MiB (8%)
Language : French
Text
ID : 4
Format : UTF-8
Codec ID : S_TEXT/UTF8
Codec ID/Info : UTF-8 Plain Text
Language : English
Menu
00:00:00.000 : :Chapter 01
00:10:31.708 : :Chapter 02
00:20:42.125 : :Chapter 03
00:24:44.666 : :Chapter 04
00:32:03.041 : :Chapter 05
00:43:10.458 : :Chapter 06
00:53:08.208 : :Chapter 07
01:04:34.458 : :Chapter 08
01:11:06.416 : :Chapter 09
01:18:29.083 : :Chapter 10
01:33:29.791 : :Chapter 11
01:42:38.833 : :Chapter 12

Скриншоты

[Профиль] [ЛС]
Кто просматривает тему:

Форум Тема Автор Размер
Боевики, детективы, триллеры Без единого свидетеля (Джордж Элизабет) [2015, Полицейский детектив, аудиокнига, MP3, 96 kbps, Ерисанова Ирина] Magnat 1.23 GB
Фантастика и фэнтези Бен Уинтерс – Последний полицейский (2015) MP3 Swager 534 MB
Фильмы (HD Rips | 720p, 1080p) Бриллиантовый полицейский / Blue Streak (1999) BDRip 720p sergej644 4.37 GB
Фильмы (HD DVD, Blu-ray и BDRemux) Бриллиантовый полицейский / Blue Streak (1999) Blu-Ray Remux | D, 2xP, 2xA Russian Mafia 25.86 GB
Фильмы 2009 года Бруклинские полицейские / Brooklyn\'s Finest (Антуан Фукуа / Antoine Fuqua) [2009, США, триллер, драма, криминал, DVDRip] [Open Matte] AVO (Иванов) TorrentFilm 1.47 GB
Фильмы 2009 года Бруклинские полицейские / Brooklyn\'s Finest (Антуан Фукуа / Antoine Fuqua) [2009, США, триллер, драма, криминал, DVDRip] [Open Matte] Dub + AVO (Иванов) TorrentFilm 2.17 GB
Фильмы (HD Rips | 720p, 1080p) Волк-полицейский / WolfCop (2014) BDRip 720p | L1 sergej644 3.38 GB
Фильмы 2014 года Волк-полицейский / WolfCop (2014) HDRip-AVC от АРХАНГЕЛ | L1 sergej644 1.5 GB
Показать сообщения:    

Текущее время: Сегодня 18:42

Часовой пояс: GMT



Вы не можете начинать темы
Вы не можете отвечать на сообщения
Вы не можете редактировать свои сообщения
Вы не можете удалять свои сообщения
Вы не можете голосовать в опросах
Вы не можете прикреплять файлы к сообщениям
Вы не можете скачивать файлы