Полиция Гавайев / Гавайи 5.0 / Hawaii Five-0 [05x01-05] (2014) WEB-DLRip | LostFilm

 
Автор Сообщение

Белочка ®

Пол:

Стаж: 5 лет 1 месяц

Сообщений: 2089



Награды: 1 (Подробнее)

Girls (Количество: 1)
Торрент-статистика

Создавать темы 26-Окт-2014 22:13

[Цитировать]

Информация о фильме
Название: Полиция Гавайев / Гавайи 5.0
Оригинальное название: Hawaii Five-0
Год выхода: 2014
Жанр: боевик, драма, криминал
Режиссер: Брэд Тернер, Дуан Кларк, Мэтт Эрл Бисли, Стив Бойум, Крис Фишер, Ларри Тенг
В ролях: Алекс О’Локлин, Скотт Каан, Дэниэл Дэ Ким, Грейс Пак, Терри О'Куинн, Тайлор Уайли, Teilor Grubbs, Маси Ока, Клер Вандер Бум, Дэннис Чун, Марк Дакаскос
О фильме:
Детектив Стив МакГарретт, бывший морской офицер с массой наград, а теперь полицейский, возвращается в Оаху расследовать убийство отца. Он остается на острове, после того, как губернатор штата Гавайи убедил его возглавить новую команду. Команда будет действовать по его правилам, при поддержке губернатора, без бюрократических проволочек, и с полным иммунитетом, все это - чтобы поймать самую крупную «дичь» в городе.
К МакГаррету присоединяется детектив Дэнни «Данно» Уильямс, недавно переведенный из Нью-Джерси полицейский, который предпочел бы небоскребы пляжам, но готов бороться с преступностью, чтобы его 8-летняя дочь чувствовала себя на островах в безопасности; и Чин Хо Келли, бывший детектив полиции Гонолулу, которого ошибочно обвинили в коррупции, и который когда-то был протеже отца МакГаррета. Двоюродная сестра Чина, Коно, прекрасная и бесстрашная уроженка островов, недавно выпустилась из академии, и рвется доказать, что она достойна места в элите департамента. МакГаррет клянется завершить дело отца, а члены нового спецотряда Five-O, может, и грызутся друг с другом, но настроены уничтожить преступность в пятидесятом штате.

Награды

Золотой глобус, 2011 год
Номинации (1):
Лучший актёр второго плана мини-сериала или фильма на ТВ (Скотт Каан)

Содержание

01. Некуда бежать (A'ohe Kahi e Pe'e Ai)
02. Семьянин (Ka Makuakane)
03. Последняя волна (Kanalu Hope Loa)
04. Маляр (Ka No'eau)
05. Наследие (Ho'oilina)

Страна: США
Продолжительность: ~ 00:45:00
Перевод: Профессиональный многоголосый закадровый, LostFilm|
Файл
Кодек: XviD
Качество: WEB-DLRip
Видео: XviD, ~ 1831 Кбит/с, 720x400, 23.976 кадр/с
Звук:
Аудио#1: Russian: MP3, 2 ch, 192 Кбит/с

MI

Общее
Полное имя : Hawaii.Five-0.S05E01.rus.LostFilm.TV.avi
Формат : AVI
Формат/Информация : Audio Video Interleave
Размер файла : 666 Мбайт
Продолжительность : 44 м.
Режим общего битрейта : Переменный
Общий поток : 2115 Кбит/сек
Программа кодирования : Nandub v1.0rc2
Библиотека кодирования : Nandub build 1853/release
Видео
Идентификатор : 0
Формат : MPEG-4 Visual
Профиль формата : Advanced Simple@L5
Параметр BVOP формата : Нет
Параметр QPel формата : Нет
Параметр GMC формата : Без точки перехода
Параметр матрицы формата : Default (H.263)
Идентификатор кодека : XVID
Идентификатор кодека/Подсказка : XviD
Продолжительность : 44 м.
Битрейт : 1831 Кбит/сек
Ширина : 720 пикселей
Высота : 400 пикселей
Соотношение сторон : 16:9
Частота кадров : 23,976 кадра/сек
Цветовое пространство : YUV
Субдискретизация насыщенности : 4:2:0
Битовая глубина : 8 бит
Тип развёртки : Прогрессивная
Метод сжатия : С потерями
Бит/(Пиксели*Кадры) : 0.265
Размер потока : 576 Мбайт (87%)
Библиотека кодирования : XviD 1.2.1 (UTC 2008-12-04)
Аудио
Идентификатор : 1
Формат : MPEG Audio
Версия формата : Version 1
Профиль формата : Layer 3
Режим : Joint stereo
Расширение режима : MS Stereo
Идентификатор кодека : 55
Идентификатор кодека/Подсказка : MP3
Продолжительность : 44 м.
Вид битрейта : Переменный
Битрейт : 192 Кбит/сек
Каналы : 2 канала
Частота : 48,0 КГц
Метод сжатия : С потерями
Размер потока : 60,4 Мбайт (9%)
Выравнивание : Соединение по промежуткам
Библиотека кодирования : LAME3.97b
Настройки программы : -m j -V 4 -q 3 -lowpass 18.6 --abr 192

Скриншоты



Перевод: Петр Чайников
[Профиль] [ЛС]
Кто просматривает тему:

Форум Тема Автор Размер
Боевики, детективы, триллеры Без единого свидетеля (Джордж Элизабет) [2015, Полицейский детектив, аудиокнига, MP3, 96 kbps, Ерисанова Ирина] Magnat 1.23 GB
Фантастика и фэнтези Бен Уинтерс – Последний полицейский (2015) MP3 Swager 534 MB
Фильмы (HD Rips | 720p, 1080p) Бриллиантовый полицейский / Blue Streak (1999) BDRip 720p sergej644 4.37 GB
Фильмы (HD DVD, Blu-ray и BDRemux) Бриллиантовый полицейский / Blue Streak (1999) Blu-Ray Remux | D, 2xP, 2xA Russian Mafia 25.86 GB
Фильмы 2009 года Бруклинские полицейские / Brooklyn\'s Finest (Антуан Фукуа / Antoine Fuqua) [2009, США, триллер, драма, криминал, DVDRip] [Open Matte] AVO (Иванов) TorrentFilm 1.47 GB
Фильмы 2009 года Бруклинские полицейские / Brooklyn\'s Finest (Антуан Фукуа / Antoine Fuqua) [2009, США, триллер, драма, криминал, DVDRip] [Open Matte] Dub + AVO (Иванов) TorrentFilm 2.17 GB
Фильмы (HD Rips | 720p, 1080p) Волк-полицейский / WolfCop (2014) BDRip 720p | L1 sergej644 3.38 GB
Фильмы 2014 года Волк-полицейский / WolfCop (2014) HDRip-AVC от АРХАНГЕЛ | L1 sergej644 1.5 GB
Показать сообщения:    

Текущее время: Сегодня 16:57

Часовой пояс: GMT



Вы не можете начинать темы
Вы не можете отвечать на сообщения
Вы не можете редактировать свои сообщения
Вы не можете удалять свои сообщения
Вы не можете голосовать в опросах
Вы не можете прикреплять файлы к сообщениям
Вы не можете скачивать файлы