Полиция Гавайев / Гавайи 5.0 / Hawaii Five-0 [05x01-02] (2014) WEB-DL 720p от HDClub | LostFilm

 
Автор Сообщение

Белочка ®

Пол:

Стаж: 5 лет 1 месяц

Сообщений: 2089



Награды: 1 (Подробнее)

Girls (Количество: 1)
Торрент-статистика

Создавать темы 14-Окт-2014 18:27

[Цитировать]

Информация о фильме
Название: Полиция Гавайев / Гавайи 5.0
Оригинальное название: Hawaii Five-0
Год выхода: 2014
Жанр: боевик, драма, криминал
Режиссер: Брэд Тернер, Дуан Кларк, Мэтт Эрл Бисли, Стив Бойум, Крис Фишер, Ларри Тенг
В ролях: Алекс О’Локлин, Скотт Каан, Дэниэл Дэ Ким, Грейс Пак, Терри О'Куинн, Тайлор Уайли, Teilor Grubbs, Маси Ока, Клер Вандер Бум, Дэннис Чун, Марк Дакаскос
О фильме:
Детектив Стив МакГарретт, бывший морской офицер с массой наград, а теперь полицейский, возвращается в Оаху расследовать убийство отца. Он остается на острове, после того, как губернатор штата Гавайи убедил его возглавить новую команду. Команда будет действовать по его правилам, при поддержке губернатора, без бюрократических проволочек, и с полным иммунитетом, все это - чтобы поймать самую крупную «дичь» в городе.
К МакГаррету присоединяется детектив Дэнни «Данно» Уильямс, недавно переведенный из Нью-Джерси полицейский, который предпочел бы небоскребы пляжам, но готов бороться с преступностью, чтобы его 8-летняя дочь чувствовала себя на островах в безопасности; и Чин Хо Келли, бывший детектив полиции Гонолулу, которого ошибочно обвинили в коррупции, и который когда-то был протеже отца МакГаррета. Двоюродная сестра Чина, Коно, прекрасная и бесстрашная уроженка островов, недавно выпустилась из академии, и рвется доказать, что она достойна места в элите департамента. МакГаррет клянется завершить дело отца, а члены нового спецотряда Five-O, может, и грызутся друг с другом, но настроены уничтожить преступность в пятидесятом штате.

Награды

Золотой глобус, 2011 год
Номинации (1):
Лучший актёр второго плана мини-сериала или фильма на ТВ (Скотт Каан)

Содержание

01. Некуда бежать (A'ohe Kahi e Pe'e Ai)

Страна: США
Продолжительность: ~ 00:45:00
Перевод: Профессиональный многоголосый закадровый, LostFilm|
Файл
Кодек: MPEG-4 AVC
Качество: WEB-DL 720p
Видео: ~ 4000 Кбит/с, 1280x720, 23.976 кадр/с
Звук:
Аудио#1: Russian: 48 kHz, AC3, 3/2 (L,C,R,l,r) + LFE ch, ~384.00 kbps avg |Многоголосый закадровый, LostFilm|
Аудио#2: English: 48 kHz, AC3, 3/2 (L,C,R,l,r) + LFE ch, ~384.00 kbps avg
Субтитры: English
Дорожка №1 получена наложением выделенного голоса на центр декодированного AC3.

MI

Общее
Уникальный идентификатор : 247295787539742524800748331151702672970 (0xBA0B6FAD0E1B9C41950EFEBC5D98C64A)
Полное имя : Hawaii.Five-0.S05.720p.WEB-DL.Rus.Eng.HDCLUBHawaii.Five-0.S05E01.720p.WEB-DL.Rus.Eng.HDCLUB.mkv
Формат : Matroska
Версия формата : Version 4 / Version 2
Размер файла : 1,46 Гбайт
Продолжительность : 43 м.
Общий поток : 4769 Кбит/сек
Название фильма : Hawaii Five-0 [Season 5] (2014) - Release for HDCLUB by vlaluk
Дата кодирования : UTC 2014-09-29 10:49:50
Программа кодирования : mkvmerge v7.2.0 ('On Every Street') 32bit built on Sep 13 2014 15:42:11
Библиотека кодирования : libebml v1.3.0 + libmatroska v1.4.1
Видео
Идентификатор : 1
Формат : AVC
Формат/Информация : Advanced Video Codec
Профиль формата : High@L3.1
Параметр CABAC формата : Нет
Параметр ReFrames формата : 2 кадра
Идентификатор кодека : V_MPEG4/ISO/AVC
Продолжительность : 43 м.
Битрейт : 3906 Кбит/сек
Ширина : 1280 пикселей
Высота : 720 пикселей
Соотношение сторон : 16:9
Режим частоты кадров : Постоянный
Частота кадров : 23,976 кадра/сек
Цветовое пространство : YUV
Субдискретизация насыщенности : 4:2:0
Битовая глубина : 8 бит
Тип развёртки : Прогрессивная
Бит/(Пиксели*Кадры) : 0.177
Размер потока : 1,20 Гбайт (82%)
Заголовок : Season 5, Episode 01: A'ohe Kahi e Pe'e Ai / Некуда бежать - Release for HDCLUB by vlaluk
Язык : English
Default : Да
Forced : Нет
Основные цвета : BT.709
Характеристики трансфера : BT.709
Коэффициенты матрицы : BT.709
Аудио #1
Идентификатор : 2
Формат : AC-3
Формат/Информация : Audio Coding 3
Расширение режима : CM (complete main)
Параметр Endianness формата : Big
Идентификатор кодека : A_AC3
Продолжительность : 43 м.
Вид битрейта : Постоянный
Битрейт : 384 Кбит/сек
Каналы : 6 каналов
Расположение каналов : Front: L C R, Side: L R, LFE
Частота : 48,0 КГц
Битовая глубина : 16 бит
Метод сжатия : С потерями
Размер потока : 120 Мбайт (8%)
Заголовок : DD 5.1 @ 384 kbps @ LostFilm
Язык : Russian
Default : Да
Forced : Нет
Аудио #2
Идентификатор : 3
Формат : AC-3
Формат/Информация : Audio Coding 3
Расширение режима : CM (complete main)
Параметр Endianness формата : Big
Идентификатор кодека : A_AC3
Продолжительность : 43 м.
Вид битрейта : Постоянный
Битрейт : 384 Кбит/сек
Каналы : 6 каналов
Расположение каналов : Front: L C R, Side: L R, LFE
Частота : 48,0 КГц
Битовая глубина : 16 бит
Метод сжатия : С потерями
Размер потока : 120 Мбайт (8%)
Заголовок : DD 5.1 @ 384 kbps
Язык : English
Default : Нет
Forced : Нет
Текст
Идентификатор : 4
Формат : UTF-8
Идентификатор кодека : S_TEXT/UTF8
Идентификатор кодека/Информация : UTF-8 Plain Text
Заголовок : English @ SRT
Язык : English
Default : Нет
Forced : Нет

Скриншоты



Релиз от: by vlaluk
[Профиль] [ЛС]
Кто просматривает тему:

Форум Тема Автор Размер
Боевики, детективы, триллеры Без единого свидетеля (Джордж Элизабет) [2015, Полицейский детектив, аудиокнига, MP3, 96 kbps, Ерисанова Ирина] Magnat 1.23 GB
Фантастика и фэнтези Бен Уинтерс – Последний полицейский (2015) MP3 Swager 534 MB
Фильмы (HD Rips | 720p, 1080p) Бриллиантовый полицейский / Blue Streak (1999) BDRip 720p sergej644 4.37 GB
Фильмы (HD DVD, Blu-ray и BDRemux) Бриллиантовый полицейский / Blue Streak (1999) Blu-Ray Remux | D, 2xP, 2xA Russian Mafia 25.86 GB
Фильмы 2009 года Бруклинские полицейские / Brooklyn\'s Finest (Антуан Фукуа / Antoine Fuqua) [2009, США, триллер, драма, криминал, DVDRip] [Open Matte] AVO (Иванов) TorrentFilm 1.47 GB
Фильмы 2009 года Бруклинские полицейские / Brooklyn\'s Finest (Антуан Фукуа / Antoine Fuqua) [2009, США, триллер, драма, криминал, DVDRip] [Open Matte] Dub + AVO (Иванов) TorrentFilm 2.17 GB
Фильмы (HD Rips | 720p, 1080p) Волк-полицейский / WolfCop (2014) BDRip 720p | L1 sergej644 3.38 GB
Фильмы 2014 года Волк-полицейский / WolfCop (2014) HDRip-AVC от АРХАНГЕЛ | L1 sergej644 1.5 GB
Показать сообщения:    

Текущее время: Сегодня 18:28

Часовой пояс: GMT



Вы не можете начинать темы
Вы не можете отвечать на сообщения
Вы не можете редактировать свои сообщения
Вы не можете удалять свои сообщения
Вы не можете голосовать в опросах
Вы не можете прикреплять файлы к сообщениям
Вы не можете скачивать файлы