Полицейский с Рублёвки. Новогодний беспредел (Илья Куликов) [2018 г., комедия, TeleSynch]

 
Author Message

sergej644 ®

Gender:

Longevity: 8 years 1 month

Posts: 7321



: 10 ()

Mega Seeder 4 (1) Mega Seeder 3 (1) Top Seeder 5 (1)
Торрент-статистика

Post 13-Jan-2019 08:51

[Quote]

Полицейский с Рублёвки. Новогодний беспредел- Производство: Россия
Режиссёр: Илья Куликов
Жанр: комедия
Год выпуска: 2018 г.
Продолжительность: 01:31:53
Российская премьера: 20 декабря 2018, «Каропрокат»-В ролях: Александр Петров, Сергей Бурунов, Александра Бортич, Роман Попов, Татьяна Бабенкова, София Каштанова, Рина Гришина, Ирина Вилкова, Никита Легостев, Александр Буянов-Описание: В канун нового года отделение полиции «Барвиха Северное» оказывается под угрозой закрытия. Чтобы спасти родной отдел, полицейский с Рублевки Гриша Измайлов вынужден пойти на крайние меры и вместе с оперативниками решает ограбить банк. Он рассчитывает на то, что его коллеги вместе с начальником отдела - Яковлевым легко раскроют это дело, деньги вернут обратно, и все сохранят работу в следующем году. Но все идет не так, как задумал Гриша...-Сэмпл КиноПоиск-Качество видео: TeleSynch
Контейнер: AVI
Видео кодек: XviD
Аудио кодек: AC3
Видео: 720x304 (2.35:1), 1736 kbps, 23,976 fps, 0,331 bpp
Аудио: AC3 / 2.0 / 48 kHz / 384 kbps
Cубтитры: отсутствуют

Media Info

General
Complete name : Z:\Torrents\Cop.s.RubLeFFki.2O18.O.TS.14OOMB.avi
Format : AVI
Format/Info : Audio Video Interleave
File size : 1.37 GiB
Duration : 1 h 31 min
Overall bit rate : 2 130 kb/s
Writing application : VirtualDubMod 1.5.10.2 (build 2540/release)
Writing library : VirtualDubMod build 2540/release
Video
ID : 0
Format : MPEG-4 Visual
Format profile : Advanced [email protected]
Format settings, BVOP : 2
Format settings, QPel : No
Format settings, GMC : No warppoints
Format settings, Matrix : Default (MPEG)
Codec ID : XVID
Codec ID/Hint : XviD
Duration : 1 h 31 min
Bit rate : 1 737 kb/s
Width : 720 pixels
Height : 304 pixels
Display aspect ratio : 2.35:1
Frame rate : 23.976 (24000/1001) FPS
Color space : YUV
Chroma subsampling : 4:2:0
Bit depth : 8 bits
Scan type : Progressive
Compression mode : Lossy
Bits/(Pixel*Frame) : 0.331
Stream size : 1.11 GiB (82%)
Writing library : XviD 1.2.1 (UTC 2008-12-04)
Audio
ID : 1
Format : AC-3
Format/Info : Audio Coding 3
Mode extension : CM (complete main)
Format settings, Endianness : Big
Codec ID : 2000
Duration : 1 h 31 min
Bit rate mode : Constant
Bit rate : 384 kb/s
Channel(s) : 2 channels
Channel positions : Front: L R
Sampling rate : 48.0 kHz
Frame rate : 31.250 FPS (1536 spf)
Compression mode : Lossy
Stream size : 252 MiB (18%)
Alignment : Split accross interleaves
Interleave, duration : 42 ms (1.00 video frame)
Interleave, preload duration : 500 ms

Скриншоты

Примечание: Есть реклама!
[Profile] [PM]
Кто просматривает тему:

Forum Topic Author Size
Боевики, детективы, триллеры Без единого свидетеля (Джордж Элизабет) [2015, Полицейский детектив, аудиокнига, MP3, 96 kbps, Ерисанова Ирина] Magnat 1.23 GB
Фантастика и фэнтези Бен Уинтерс – Последний полицейский (2015) MP3 Swager 534 MB
Фильмы (HD Rips | 720p, 1080p) Бриллиантовый полицейский / Blue Streak (1999) BDRip 720p sergej644 4.37 GB
Фильмы (HD DVD, Blu-ray и BDRemux) Бриллиантовый полицейский / Blue Streak (1999) Blu-ray CEE 1080p | Лицензия DOMINION 31.77 GB
Фильмы (HD DVD, Blu-ray и BDRemux) Бриллиантовый полицейский / Blue Streak (1999) Blu-Ray Remux | D, 2xP, 2xA Russian Mafia 25.86 GB
Фильмы до 2000 года Бриллиантовый полицейский / Blue Streak (1999) HDRip от Scarabey DOMINION 742 MB
Фильмы 2009 года Бруклинские полицейские / Brooklyn\'s Finest (Антуан Фукуа / Antoine Fuqua) [2009, США, триллер, драма, криминал, DVDRip] [Open Matte] AVO (Иванов) TorrentFilm 1.47 GB
Фильмы 2009 года Бруклинские полицейские / Brooklyn\'s Finest (Антуан Фукуа / Antoine Fuqua) [2009, США, триллер, драма, криминал, DVDRip] [Open Matte] Dub + AVO (Иванов) TorrentFilm 2.17 GB
Display posts from previous:    

The time now is: Today 22:16

All times are GMT



You cannot post new topics in this forum
You cannot reply to topics in this forum
You cannot edit your posts in this forum
You cannot delete your posts in this forum
You cannot vote in polls in this forum
You cannot attach files in this forum
You cannot download files in this forum