Полицейская тачка / Cop Car (Джон Уоттс / Jon Watts) [2015, США, триллер, WEB-DLRip] VO

 
Автор Сообщение

TorrentFilm ®

Пол:

Стаж: 2 года

Сообщений: 7741



Награды: Нет

Торрент-статистика

Создавать темы 19-Авг-2015 00:10

[Цитировать]

Полицейская тачка / Cop Car
Страна: США
Жанр: триллер
Год выпуска: 2015
Продолжительность: 01:27:49
Перевод: Одноголосый закадровый
Cубтитры: нет
Режиссер: Джон Уоттс / Jon Watts
В ролях: Кевин Бэйкон, Джеймс Фридсон-Джексон, Хэйс Уэллфорд, Камрин Менхейм, Ши Уигхэм, Кэтлин Бентли, Джозеф Оливейра
Описание: Два 10-летних мальчишки находят заброшенный полицейский автомобиль и решают присвоить его себе. Обычная детская игра начинает приобретать пугающие черты после того, как шериф небольшого городка отправляется на поиски своей пропавшей машины.
Сэмпл: http://sendfile.su/1146802 Осторожно! Ненормативная лексика!
Качество видео: WEB-DLRip
Формат видео: AVI
Видео: 720x304 (2.35:1), 23,976 fps, XviD build 50 ~1835 kbps avg, 0.27 bit/pixel
Аудио: 48 kHz, AC3 Dolby Digital, 3/2 (L,C,R,l,r) + LFE ch, ~384 kbps

MediaInfo

Format : AVI
Format/Info : Audio Video Interleave
File size : 1.37 GiB
Duration : 1h 27mn
Overall bit rate : 2 229 Kbps
Writing application : VirtualDubMod 1.5.10.3 | www.virtualdub-fr.org || (build 2550/release)
Writing library : VirtualDubMod build 2550/release
Video
ID : 0
Format : MPEG-4 Visual
Format profile : Advanced Simple@L5
Format settings, BVOP : 2
Format settings, QPel : No
Format settings, GMC : No warppoints
Format settings, Matrix : Default (MPEG)
Codec ID : XVID
Codec ID/Hint : XviD
Duration : 1h 27mn
Bit rate : 1 835 Kbps
Width : 720 pixels
Height : 304 pixels
Display aspect ratio : 2.35:1
Frame rate : 23.976 fps
Color space : YUV
Chroma subsampling : 4:2:0
Bit depth : 8 bits
Scan type : Progressive
Compression mode : Lossy
Bits/(Pixel*Frame) : 0.350
Stream size : 1.13 GiB (82%)
Writing library : XviD 1.2.1 (UTC 2008-12-04)
Audio
ID : 1
Format : AC-3
Format/Info : Audio Coding 3
Mode extension : CM (complete main)
Format settings, Endianness : Big
Codec ID : 2000
Duration : 1h 27mn
Bit rate mode : Constant
Bit rate : 384 Kbps
Channel(s) : 6 channels
Channel positions : Front: L C R, Side: L R, LFE
Sampling rate : 48.0 KHz
Bit depth : 16 bits
Compression mode : Lossy
Stream size : 241 MiB (17%)
Alignment : Split accross interleaves
Interleave, duration : 42 ms (1.00 video frame)
Interleave, preload duration : 500 ms

Скриншот c названием фильма

Скриншоты




[Профиль] [ЛС]
Кто просматривает тему:

Форум Тема Автор Размер
Боевики, детективы, триллеры Без единого свидетеля (Джордж Элизабет) [2015, Полицейский детектив, аудиокнига, MP3, 96 kbps, Ерисанова Ирина] Magnat 1.23 GB
Фантастика и фэнтези Бен Уинтерс – Последний полицейский (2015) MP3 Swager 534 MB
Фильмы (HD Rips | 720p, 1080p) Бриллиантовый полицейский / Blue Streak (1999) BDRip 720p sergej644 4.37 GB
Фильмы (HD DVD, Blu-ray и BDRemux) Бриллиантовый полицейский / Blue Streak (1999) Blu-Ray Remux | D, 2xP, 2xA Russian Mafia 25.86 GB
Фильмы 2009 года Бруклинские полицейские / Brooklyn\'s Finest (Антуан Фукуа / Antoine Fuqua) [2009, США, триллер, драма, криминал, DVDRip] [Open Matte] AVO (Иванов) TorrentFilm 1.47 GB
Фильмы 2009 года Бруклинские полицейские / Brooklyn\'s Finest (Антуан Фукуа / Antoine Fuqua) [2009, США, триллер, драма, криминал, DVDRip] [Open Matte] Dub + AVO (Иванов) TorrentFilm 2.17 GB
Фильмы (HD Rips | 720p, 1080p) Волк-полицейский / WolfCop (2014) BDRip 720p | L1 sergej644 3.38 GB
Фильмы 2014 года Волк-полицейский / WolfCop (2014) HDRip-AVC от АРХАНГЕЛ | L1 sergej644 1.5 GB
Показать сообщения:    

Текущее время: Сегодня 04:15

Часовой пояс: GMT



Вы не можете начинать темы
Вы не можете отвечать на сообщения
Вы не можете редактировать свои сообщения
Вы не можете удалять свои сообщения
Вы не можете голосовать в опросах
Вы не можете прикреплять файлы к сообщениям
Вы не можете скачивать файлы