Полина Гагарина - (Спектакль... Сольный концерт) [2015 г.] (Pop) [HDTV, 1080i]

 
Автор Сообщение

sergej644 ®

Пол:

Стаж: 4 года 11 месяцев

Сообщений: 6046

Откуда: Soviet Union



Награды: Нет

Торрент-статистика

Создавать темы 14-Июл-2015 20:45

[Цитировать]

-Полина Гагарина - (Спектакль... Сольный концерт)-- Год выпуска: 2015 г.
Страна: Россия
Жанр: Pop
Студия: канал ОРТ
Продолжительность: 01:19:41
-Описание:
Первый канала представляет телевизионную версию сольного концерта Полины Гагариной "Спектакль…", который прошел в столичном Crocus City Hall с небывалым успехом. Напомним, что вскоре после него Полина выступила в Вене на конкурсе "Евровидение 2015" и едва не выиграла его, лишь немного уступив шведскому исполнителю. Концерт "Спектакль" полностью оправдывает свое название, представляя собой в такой же степени музыкальное, в какой и театрализованное действо со всеми атрибутами, свойственными сделанной на высочайшем уровне театральной постановке. Исполнительница исполнит все свои самые яркие хиты, включая "Спектакль окончен", "Нет", "Навек" и др.-Качество видео: HDTV
Контейнер: TS
Стандарт разрешения: 1080i
Видео кодек: H.264
Аудио кодек: MPEG Audio
Видео: 1920 x 1080, 9 228 Kbps, 25.000 fps, 0.178 bit/pixel
Аудио: 224 Кbps, 2 ch, 48000Hz (Stereo)
-

Трэклист

1. Колыбельная;
2. Любовь под солнцем
3. Запретная любовь
4. Осколки
5. Помню
6. Утро
7. Я твоя
8. Полюшка
9. Где-то живет любовь
10. Кому? Зачем?
11. Я тебя не прощу никогда
12. Нет
13. Навек
14. WC
15. Шагай
16. Спектакль окончен.

Media Info

Общее
Идентификатор                            : 1 (0x1)
Полное имя                               : D:\Torrent files\Спектакль... Сольный концерт Полины Гагариной  (2015, HDTV 1080i, Эфир от 12.07.2015) (by Nokia5150).ts
Формат                                   : MPEG-TS
Размер файла                             : 5,54 Гбайт
Продолжительность                        : 1 ч. 19 м.
Режим общего битрейта                    : Переменный
Общий поток                              : 9946 Кбит/сек
Видео
Идентификатор                            : 2646 (0xA56)
Идентификатор меню                       : 1 (0x1)
Формат                                   : AVC
Формат/Информация                        : Advanced Video Codec
Профиль формата                          : High@L4.0
Параметр CABAC формата                   : Да
Параметр ReFrames формата                : 3 кадра
Идентификатор кодека                     : 27
Продолжительность                        : 1 ч. 19 м.
Битрейт                                  : 9228 Кбит/сек
Ширина                                   : 1920 пикселей
Высота                                   : 1080 пикселей
Соотношение сторон                       : 16:9
Частота кадров                           : 25,000 кадров/сек
Стандарт вещания                         : Component
Цветовое пространство                    : YUV
Субдискретизация насыщенности            : 4:2:0
Битовая глубина                          : 8 бит
Тип развёртки                            : Чересстрочная
Порядок развёртки                        : Верхнее поле первое
Бит/(Пиксели*Кадры)                      : 0.178
Размер потока                            : 5,14 Гбайт (93%)
Основные цвета                           : BT.709
Характеристики трансфера                 : BT.709
Коэффициенты матрицы                     : BT.709
colour_range                             : Limited
Аудио
Идентификатор                            : 3646 (0xE3E)
Идентификатор меню                       : 1 (0x1)
Формат                                   : MPEG Audio
Версия формата                           : Version 1
Профиль формата                          : Layer 2
Идентификатор кодека                     : 3
Продолжительность                        : 1 ч. 19 м.
Вид битрейта                             : Постоянный
Битрейт                                  : 224 Кбит/сек
Каналы                                   : 2 канала
Частота                                  : 48,0 КГц
Метод сжатия                             : С потерями
Размер потока                            : 128 Мбайт (2%)
Язык                                     : Russian

Скриншоты

Не забываем говорить
[Профиль] [ЛС]

Создавать темы 13-Авг-2015 12:04 (спустя 29 дней)

Топик был перенесен из форума Концерты в форум Наши концерты
sergej644
 
Кто просматривает тему:

Форум Тема Автор Размер
Pop (Pop) Полина Гагарина - Спасибо Родной... - 2015, MP3, 320 kbps достали все 147 MB
Боевики, детективы, триллеры Дашкова Полина - Чувство реальности [Герасимов Вячеслав, 2013 г., 96 kbps, MP3] sergej644 705 MB
Документальные HD Золотой глобус: Южные моря (Французская Полинезия) / Golden Globe: Südsee (Херберт Ленц / Herbert Lenz, Катрин Вагнер / Kathrin Wagner) [2009 г., Документальный, BDRip 720p] TorrentFilm 4.59 GB
Отечественные мультфильмы Лариса умеет летать (Полина Манохина, Елизавета Манохина) [2013, мультфильм, DVDScreener] TorrentFilm 91 MB
Боевики, детективы, триллеры Легкие шаги безумия (Полина Дашкова) [2015, Детектив, триллер, аудиокнига, MP3, 96 kbps, Татьяна Середина] Magnat 668 MB
Pop Полина Гагарина - 9 (2016) MP3 достали все 105 MB
Pop Полина Гагарина - A Million Voices (Super Deluxe Edition) (2015) MP3 достали все 162 MB
Наши клипы Полина Гагарина - Спектакль окончен [2012, Pop, HDTVRip 1080p](RE:music) sergej644 486 MB
Показать сообщения:    

Текущее время: Сегодня 12:09

Часовой пояс: GMT



Вы не можете начинать темы
Вы не можете отвечать на сообщения
Вы не можете редактировать свои сообщения
Вы не можете удалять свои сообщения
Вы не можете голосовать в опросах
Вы не можете прикреплять файлы к сообщениям
Вы не можете скачивать файлы