Полет Феникса / The Flight of the Phoenix (1965) BDRip 720p | P2, P , A

 
Автор Сообщение

Russian Mafia ®

Пол:

Стаж: 1 год 8 месяцев

Сообщений: 4253



Награды: 10 (Подробнее)

Mega Seeder 2 (Количество: 1) Top Releaser 3 (Количество: 1) Mega Seeder 3 (Количество: 1)
Торрент-статистика

Создавать темы 06-Окт-2016 15:11

[Цитировать]

«Its excitement is headed straight for you!»
Информация о фильме
Название: Полет Феникса
Оригинальное название: The Flight of the Phoenix
Год выхода: 1965
Жанр: Драма, приключения
Режиссер: Роберт Олдрич
В ролях: Джеймс Стюарт, Ричард Аттенборо, Питер Финч, Харди Крюгер, Эрнест Боргнайн, Иэн Бэннен, Рональд Фрайзер, Кристиан Маркан, Дэн Дюрьи, Джордж Кеннеди, Габриэле Тинти, Алекс Монтойя, Питер Бравос, Уильям Олдрич, Барри Чейз, Стэнли Ральф Росс
О фильме:
Небольшой грузовой самолет, попав в сильнейшую песчаную бурю, терпит крушение посреди пустыни. Понимая, что помощь не придет, команда принимает решение самостоятельно построить новый самолет из обломков разбившегося.
Командир корабля Фрэнк Таунс и штурман Лью Моран ведут людей к спасению, несмотря на нарастающее напряжение в отношениях между членами команды.

Знаете ли вы, что...

• Фильм посвящен памяти пилота и каскадёра Пола Мантца, погибшего в июле 1965 года при съёмке финальных сцен с долгожданным взлётом самолёта.

Награды

Оскар, 1966 год
Номинации (2):
Лучшая мужская роль второго плана (Иэн Бэннен)
Лучший монтаж
Золотой глобус, 1966 год
Номинации (3):
Лучший фильм (драма)
Лучшая мужская роль второго плана (Харди Крюгер)
Премия лучшему дебютанту (Иэн Бэннен)

Страна: США
Студия: The Associates & Aldrich Company Inc.
Продолжительность: 02:22:00
Перевод: Профессиональный (двухголосый, закадровый)[SomeWax] + Профессиональный (многоголосый, закадровый)[Первый канал] + Авторский (одноголосый, закадровый)[Ю.Сербин]
Файл
Качество: BDRip 720p
Формат: MKV
Кодек: MPEG-4 AVC
Видео: 1280x694 (1,85:1), 23,976 fps, MPEG-4 AVC ~12,0 Мbps avg, 0.563 bit/pixel
Аудио: DTS, 48 kHz, 6 ch, ~1509.00 kbps avg | русский | Профессиональный (двухголосый, закадровый)[SomeWax]
Аудио: АС3, 48 kHz, 2 ch, ~192.00 kbps avg | русский | Профессиональный (многоголосый, закадровый)[Первый канал]
Аудио: DTS, 48 kHz, 6 ch, ~1509.00 kbps avg | русский | Авторский (одноголосый, закадровый)[Ю.Сербин]
Аудио: AC3, 48 kHz, 2 ch, ~192.00 kbps avg | украинский | Профессиональный (двухголосый, закадровый)[1+1]
Аудио: FLAC, 48 kHz, 2 ch, ~365.00 kbps avg | английский | Оригинал
Субтитры: Русские, английские
Семпл

Инфо-файл

Общее
Уникальный идентификатор : 210348332393189841045256976023922600442 (0x9E3F9D7E746AA582A0E3E464DAE6E9FA)
Полное имя : D:The.Flight.of.the.Phoenix.1965.720p.BliRay.3xRus.Ukr.Eng.HDCLUB-SbR.mkv
Формат : Matroska
Версия формата : Version 4 / Version 2
Размер файла : 15,6 Гбайт
Продолжительность : 2 ч. 22 м.
Режим общего битрейта : Переменный
Общий поток : 15,8 Мбит/сек
Дата кодирования : UTC 2016-10-06 08:22:38
Программа кодирования : mkvmerge v9.4.2 ('So High') 64bit
Библиотека кодирования : libebml v1.3.4 + libmatroska v1.4.5
Attachements : cover.jpg
DURATION : 02:20:52.444000000
NUMBER_OF_FRAMES : 1434
NUMBER_OF_BYTES : 55611
_STATISTICS_WRITING_APP : mkvmerge v9.4.2 ('So High') 64bit
_STATISTICS_WRITING_DATE_UTC : 2016-10-06 08:22:38
_STATISTICS_TAGS : BPS DURATION NUMBER_OF_FRAMES NUMBER_OF_BYTES
Видео
Идентификатор : 1
Формат : AVC
Формат/Информация : Advanced Video Codec
Профиль формата : High@L4.1
Параметр CABAC формата : Да
Параметр ReFrames формата : 9 кадров
Идентификатор кодека : V_MPEG4/ISO/AVC
Продолжительность : 2 ч. 22 м.
Номинальный битрейт : 12,0 Мбит/сек
Ширина : 1280 пикселей
Высота : 694 пикселя
Соотношение сторон : 1,85:1
Режим частоты кадров : Постоянный
Частота кадров : 23,976 кадра/сек
Цветовое пространство : YUV
Субдискретизация насыщенности : 4:2:0
Битовая глубина : 8 бит
Тип развёртки : Прогрессивная
Бит/(Пиксели*Кадры) : 0.563
Библиотека кодирования : x264 core 148 r2705+54 9f484c1 t_mod_Custom [8-bit@all X86_64]
Настройки программы : cabac=1 / ref=9 / deblock=1:-3:-3 / analyse=0x3:0x133 / me=umh / subme=10 / psy=1 / fade_compensate=0.00 / psy_rd=1.10:0.05 / mixed_ref=1 / me_range=32 / chroma_me=1 / trellis=2 / 8x8dct=1 / cqm=0 / deadzone=21,11 / fast_pskip=1 / chroma_qp_offset=-3 / threads=6 / lookahead_threads=1 / sliced_threads=0 / nr=0 / decimate=1 / interlaced=0 / bluray_compat=0 / constrained_intra=0 / fgo=0 / bframes=8 / b_pyramid=2 / b_adapt=2 / b_bias=0 / direct=3 / weightb=1 / open_gop=0 / weightp=2 / keyint=250 / keyint_min=23 / scenecut=40 / intra_refresh=0 / rc=2pass / mbtree=0 / bitrate=12000 / ratetol=1.0 / qcomp=0.70 / qpmin=0:0:0 / qpmax=69:69:69 / qpstep=4 / cplxblur=20.0 / qblur=0.5 / ip_ratio=1.30 / pb_ratio=1.20 / aq=1:0.75 / aq-sensitivity=10.00 / aq-factor=1.00:1.00:1.00 / aq2=0 / aq3=0
Язык : English
Default : Да
Forced : Нет
Цветовой диапазон : Limited
Коэффициенты матрицы : BT.709
DURATION : 02:22:00.020000000
NUMBER_OF_FRAMES : 204276
NUMBER_OF_BYTES : 12778755922
_STATISTICS_WRITING_APP : mkvmerge v9.4.2 ('So High') 64bit
_STATISTICS_WRITING_DATE_UTC : 2016-10-06 08:22:38
_STATISTICS_TAGS : BPS DURATION NUMBER_OF_FRAMES NUMBER_OF_BYTES
Аудио #1
Идентификатор : 2
Формат : DTS
Формат/Информация : Digital Theater Systems
Режим : 16
Параметр Endianness формата : Big
Идентификатор кодека : A_DTS
Продолжительность : 2 ч. 22 м.
Вид битрейта : Постоянный
Битрейт : 1509 Кбит/сек
Каналы : 2 канала
Расположение каналов : Front: L R
Частота : 48,0 КГц
Битовая глубина : 24 бит
Метод сжатия : С потерями
Размер потока : 1,50 Гбайт (10%)
Заголовок : Двухголосый закадровый, SomeWax
Язык : Russian
Default : Да
Forced : Нет
Аудио #2
Идентификатор : 3
Формат : AC-3
Формат/Информация : Audio Coding 3
Расширение режима : CM (complete main)
Параметр Endianness формата : Big
Идентификатор кодека : A_AC3
Продолжительность : 2 ч. 22 м.
Вид битрейта : Постоянный
Битрейт : 192 Кбит/сек
Каналы : 2 канала
Расположение каналов : Front: L R
Частота : 48,0 КГц
Метод сжатия : С потерями
Размер потока : 195 Мбайт (1%)
Заголовок : Многоголосый закадровый, Первый канал
Язык : Russian
Default : Нет
Forced : Нет
Аудио #3
Идентификатор : 4
Формат : DTS
Формат/Информация : Digital Theater Systems
Режим : 16
Параметр Endianness формата : Big
Идентификатор кодека : A_DTS
Продолжительность : 2 ч. 22 м.
Вид битрейта : Постоянный
Битрейт : 1509 Кбит/сек
Каналы : 2 канала
Расположение каналов : Front: L R
Частота : 48,0 КГц
Битовая глубина : 24 бит
Метод сжатия : С потерями
Размер потока : 1,50 Гбайт (10%)
Заголовок : Одноголосый закадровый, Ю.Сербин
Язык : Russian
Default : Нет
Forced : Нет
Аудио #4
Идентификатор : 5
Формат : AC-3
Формат/Информация : Audio Coding 3
Расширение режима : CM (complete main)
Параметр Endianness формата : Big
Идентификатор кодека : A_AC3
Продолжительность : 2 ч. 22 м.
Вид битрейта : Постоянный
Битрейт : 192 Кбит/сек
Каналы : 2 канала
Расположение каналов : Front: L R
Частота : 48,0 КГц
Метод сжатия : С потерями
Размер потока : 195 Мбайт (1%)
Заголовок : Двухголосый закадровый, 1+1
Язык : Ukrainian
Default : Нет
Forced : Нет
Аудио #5
Идентификатор : 6
Формат : FLAC
Формат/Информация : Free Lossless Audio Codec
Идентификатор кодека : A_FLAC
Продолжительность : 2 ч. 22 м.
Вид битрейта : Переменный
Каналы : 2 канала
Частота : 48,0 КГц
Битовая глубина : 16 бит
Библиотека кодирования : libFLAC 1.2.1 (UTC 2007-09-17)
Язык : English
Default : Нет
Forced : Нет
Текст #1
Идентификатор : 7
Формат : UTF-8
Идентификатор кодека : S_TEXT/UTF8
Идентификатор кодека/Информация : UTF-8 Plain Text
Язык : Russian
Default : Нет
Forced : Нет
Текст #2
Идентификатор : 8
Формат : UTF-8
Идентификатор кодека : S_TEXT/UTF8
Идентификатор кодека/Информация : UTF-8 Plain Text
Язык : English
Default : Нет
Forced : Нет
Текст #3
Идентификатор : 9
Формат : UTF-8
Идентификатор кодека : S_TEXT/UTF8
Идентификатор кодека/Информация : UTF-8 Plain Text
Заголовок : SDH
Язык : English
Default : Нет
Forced : Нет
Меню
00:00:00.000 : en:00:00:00.000
00:11:48.414 : en:00:11:48.414
00:24:24.546 : en:00:24:24.546
00:37:57.650 : en:00:37:57.650
00:47:49.617 : en:00:47:49.617
01:03:29.431 : en:01:03:29.431
01:14:08.444 : en:01:14:08.444
01:32:43.181 : en:01:32:43.181
01:41:15.152 : en:01:41:15.152
01:54:24.355 : en:01:54:24.355
02:05:31.939 : en:02:05:31.939

Скриншоты

Релиз от:
[Профиль] [ЛС]
Кто просматривает тему:

Форум Тема Автор Размер
Classical (Classical) Полет Валькирий (сборник) в современной обработке - 2007, MP3, 320 kbps Magnat 91 MB
Документальные HD Альпы с высоты птичьего полета / Die Alpen: Unsere Berge von oben (Peter Bardehle, Sebastian Lindemann) [2013, документальный, BDRemux 1080p] TorrentFilm 16.45 GB
Фильмы 2011 года Змеиный полет / Snakes on a Plane (Дэвид Р. Эллис / David R. Ellis, Лекс Халаби / Lex Halaby) [2006, Германия, США, Канада, боевик, триллер, SATRip] [Full Screen] Dub TorrentFilm 1.45 GB
Фильмы (HD Rips | 720p, 1080p) Иллюзия полета / Flightplan (2005) BDRip 1080p sergej644 7.75 GB
R.G.TorrentFilm Video Ночной полет / The Night Flier (Марк Павиа / Mark Pavia) [1997 г., Ужасы, фэнтези, детектив, DVDRip] DVO Один 777 747 MB
Фильмы 2011 года Ночной полет / The Night Flier (Марк Павиа) [1997 г., Ужасы, фэнтези, детектив, DVDRip] [AVO (Живов)] Bathory 1.46 GB
Отечественные мультфильмы Полет / Lend (Рейн Раамат / Rein Raamat) [1973, притча, DVDRip] painkiller 104 MB
Discovery Полеты вглубь Аляски. Сезон 3 (Серии 8 из 8) / Flying Wild Alaska [2013, Документалистика, SATRip] reversefile 9.38 GB
Показать сообщения:    

Текущее время: Сегодня 16:56

Часовой пояс: GMT



Вы не можете начинать темы
Вы не можете отвечать на сообщения
Вы не можете редактировать свои сообщения
Вы не можете удалять свои сообщения
Вы не можете голосовать в опросах
Вы не можете прикреплять файлы к сообщениям
Вы не можете скачивать файлы