Покровские ворота (Михаил Козаков) [1982, СССР, мюзикл, драма, мелодрама, комедия, BDRip 720p]

 
Автор Сообщение

TorrentFilm ®

Пол:

Стаж: 2 года

Сообщений: 7741



Награды: Нет

Торрент-статистика

Создавать темы 01-Янв-2016 00:13

[Цитировать]

Покровские ворота- Год выпуска: 1982
Страна: СССР-Жанры: мюзикл, драма, мелодрама, комедия
Продолжительность: 02:19:43-Cубтитры: нет
Навигация по главам: нет-Режиссер: Михаил Козаков
Сценарий: Леонид Зорин-В ролях: Олег Меньшиков, Леонид Броневой, Инна Ульянова, Софья Пилявская, Анатолий Равикович, Виктор Борцов, Елена Коренева, Татьяна Догилева, Елизавета Никищихина, Игорь Дмитриев-Описание: Если вы развелись, и ваша бывшая жена снова вышла замуж - это еще не значит, что вы свободны. Если вы пригласили девушку на свидание, и она пришла, это еще не значит, что она будет вашей. Но если при этом ваш сосед по коммуналке - студент Костик, то можете быть уверены - все будет хорошо.-Доп. информация: Полная реставрация изображения и звука. Исходные киноматериалы подготовлены Госфильмофондом России. Покадровая цифровая реставрация изображения, ремастеринг звука и авторинг проведены объединением «Крупный план».-Релиз от - -Качество: BDRip (manofgod)
Формат: MKV
Видео кодек: x264
Аудио кодек: DTS, FLAC
Видео 1: ~ 4 575 Kbps, 986x720, 23.976 fps
Видео 2: ~ 4 575 Kbps, 986x720, 23.976 fps
Аудио 1: Russian - DTS, ~1 509 Kbps, 48KHz, 6ch
Аудио 2: Russian - FLAC, ~747 Kbps, 48KHz, 1ch

Знаете ли вы, что...

  • Эммануил Геллер сыграл в фильме дедушку Савельича, при том, что у самого Геллера отчество тоже было «Савельевич»..
  • Этот фильм, вообще мог не появиться. Дело в том, что Козаков неоднократно отказывался от роли Дзержинского в фильме «Государственная граница» (куда, кстати сказать, его утверждали без кинопроб). Руководство Госкино поставило Козакова перед выбором: либо он соглашается на роль Дзержинского, либо ему не позволят снимать Покровские ворота.
  • Перед сдачей фильма в прокат, у Козакова так же появилась большая проблема: почти сразу же после окончания производства фильма, актриса Елена Коренева (исполнившая роль Людочки) эмигрировала за рубеж. Естественно, этот факт бросил тень на всю съемочную группу. По словам Козакова, он сделал так, что на закрытом просмотре худсоветом «случайно» оказался один из представителей партийной элиты, и фильм ему понравился. Это и спасло фильм от того, что его не «положили на полку».
  • В начале второй серии фильма есть эпизод, в котором во время свидания Костика с Ритой показываются простые москвичи на улицах города. У одного из детей, играющих в парке на курточке видна эмблема олимпиады «Москва-80».
  • В фильме есть эпизод, в котором героиня Инны Ульяновой Маргарита Павловна стоит у входа в кинотеатр под афишей фильма «Карнавальная ночь», в котором актриса была задействована в массовке — ее лицо видно среди других гостей новогоднего праздника.
Подробные тех. данные 1 серии

x264 log

raw [info]: 986x720p 1:1 @ 24000/1001 fps (cfr)
x264 [info]: using SAR=1/1
x264 [info]: using cpu capabilities: MMX2 SSE2Fast SSSE3 SSE4.2 AVX
x264 [info]: profile High, level 4.1
x264 [info]: frame I:509 Avg QP:16.29 size:100303
x264 [info]: frame P:22861 Avg QP:19.08 size: 47336
x264 [info]: frame B:71514 Avg QP:21.16 size: 15793
x264 [info]: consecutive B-frames: 3.3% 4.3% 13.4% 15.2% 8.9% 54.6% 0.3% 0.0% 0.0% 0.0%
x264 [info]: mb I I16..4: 1.3% 88.6% 10.1%
x264 [info]: mb P I16..4: 0.1% 10.2% 0.8% P16..4: 29.7% 43.7% 15.4% 0.0% 0.0% skip: 0.1%
x264 [info]: mb B I16..4: 0.0% 0.7% 0.1% B16..8: 42.6% 27.6% 5.3% direct: 5.9% skip:17.7% L0:42.0% L1:46.4% BI:11.6%
x264 [info]: 8x8 transform intra:91.2% inter:62.0%
x264 [info]: direct mvs spatial:99.5% temporal:0.5%
x264 [info]: coded y,uvDC,uvAC intra: 98.6% 79.3% 42.1% inter: 43.0% 23.5% 5.4%
x264 [info]: i16 v,h,dc,p: 9% 11% 2% 78%
x264 [info]: i8 v,h,dc,ddl,ddr,vr,hd,vl,hu: 8% 6% 4% 11% 16% 15% 15% 12% 12%
x264 [info]: i4 v,h,dc,ddl,ddr,vr,hd,vl,hu: 7% 6% 1% 9% 19% 18% 17% 12% 12%
x264 [info]: i8c dc,h,v,p: 38% 24% 20% 19%
x264 [info]: Weighted P-Frames: Y:7.2% UV:1.3%
x264 [info]: ref P L0: 45.0% 14.1% 17.0% 6.5% 5.3% 3.8% 3.4% 2.1% 2.2% 0.6% 0.0%
x264 [info]: ref B L0: 84.4% 7.6% 3.1% 1.7% 1.2% 1.0% 0.6% 0.3%
x264 [info]: ref B L1: 97.5% 2.5%
x264 [info]: kb/s:4573.83
encoded 94884 frames, 7.93 fps, 4573.83 kb/s
General
Unique ID : 228613900729614485050577531962939914219 (0xABFD6F8ACF8B91FAB9277953EE1FB7EB)
Complete name : D:\Фильмы\Наши\Pokrovskie.Vorota.1982.720p.BluRay.Rus.HDCLUB\Pokrovskie.Vorota.p.1.1982.720p.BluRay.Rus.HDCLUB.mkv
Format : Matroska
Format version : Version 2
File size : 3.15 GiB
Duration : 1h 5mn
Overall bit rate mode : Variable
Overall bit rate : 6 833 Kbps
Encoded date : UTC 2013-04-23 17:39:14
Writing application : mkvmerge v5.8.0 ('No Sleep / Pillow') built on Sep 2 2012 15:37:04
Writing library : libebml v1.2.3 + libmatroska v1.3.0
Video
ID : 1
Format : AVC
Format/Info : Advanced Video Codec
Format profile : High@L4.1
Format settings, CABAC : Yes
Format settings, ReFrames : 9 frames
Codec ID : V_MPEG4/ISO/AVC
Duration : 1h 5mn
Nominal bit rate : 4 575 Kbps
Width : 986 pixels
Height : 720 pixels
Display aspect ratio : 4:3
Frame rate mode : Constant
Frame rate : 23.976 fps
Color space : YUV
Chroma subsampling : 4:2:0
Bit depth : 8 bits
Scan type : Progressive
Bits/(Pixel*Frame) : 0.269
Title : Покровские ворота / Pokrovsky Gates (1982) - Release for HDClub
Writing library : x264 core 130 r2273 b3065e6
Encoding settings : cabac=1 / ref=9 / deblock=1:-3:-3 / analyse=0x3:0x113 / me=umh / subme=11 / psy=1 / psy_rd=1.10:0.00 / mixed_ref=1 / me_range=32 / chroma_me=1 / trellis=2 / 8x8dct=1 / cqm=0 / deadzone=21,11 / fast_pskip=0 / chroma_qp_offset=-2 / threads=12 / lookahead_threads=2 / sliced_threads=0 / nr=0 / decimate=0 / interlaced=0 / bluray_compat=0 / constrained_intra=0 / bframes=9 / b_pyramid=2 / b_adapt=2 / b_bias=0 / direct=3 / weightb=1 / open_gop=0 / weightp=2 / keyint=240 / keyint_min=23 / scenecut=40 / intra_refresh=0 / rc_lookahead=120 / rc=2pass / mbtree=0 / bitrate=4575 / ratetol=1.0 / qcomp=0.70 / qpmin=0 / qpmax=69 / qpstep=4 / cplxblur=20.0 / qblur=0.5 / vbv_maxrate=50000 / vbv_bufsize=62500 / nal_hrd=none / ip_ratio=1.40 / pb_ratio=1.30 / aq=2:0.80
Language : Russian
Default : Yes
Forced : No
Color primaries : BT.709
Transfer characteristics : BT.709
Matrix coefficients : BT.709
Audio #1
ID : 2
Format : DTS
Format/Info : Digital Theater Systems
Mode : 16
Format settings, Endianness : Big
Codec ID : A_DTS
Duration : 1h 5mn
Bit rate mode : Constant
Bit rate : 1 509 Kbps
Channel(s) : 6 channels
Channel positions : Front: L C R, Side: L R, LFE
Sampling rate : 48.0 KHz
Bit depth : 24 bits
Compression mode : Lossy
Stream size : 712 MiB (22%)
Title : Оригинал, DTS 48/24 1509 Kbps 5/1
Language : Russian
Default : Yes
Forced : No
Audio #2
ID : 3
Format : FLAC
Format/Info : Free Lossless Audio Codec
Codec ID : A_FLAC
Duration : 1h 5mn
Bit rate mode : Variable
Channel(s) : 1 channel
Sampling rate : 48.0 KHz
Bit depth : 24 bits
Title : Оригинал, FLAC 747 Kbps 1/0
Writing library : libFLAC 1.2.1 (UTC 2007-09-17)
Language : Russian
Default : No
Forced : No

Подробные тех. данные 2 серии

General
Unique ID : 180060225615308969356825684970793937285 (0x877656892BCBA3439E4B2898F33D2985)
Complete name : D:\Фильмы\Наши\Pokrovskie.Vorota.1982.720p.BluRay.Rus.HDCLUB\Pokrovskie.Vorota.p.2.1982.720p.BluRay.Rus.HDCLUB.mkv
Format : Matroska
Format version : Version 2
File size : 3.52 GiB
Duration : 1h 13mn
Overall bit rate mode : Variable
Overall bit rate : 6 835 Kbps
Encoded date : UTC 2013-04-23 17:50:00
Writing application : mkvmerge v5.8.0 ('No Sleep / Pillow') built on Sep 2 2012 15:37:04
Writing library : libebml v1.2.3 + libmatroska v1.3.0
Video
ID : 1
Format : AVC
Format/Info : Advanced Video Codec
Format profile : High@L4.1
Format settings, CABAC : Yes
Format settings, ReFrames : 9 frames
Codec ID : V_MPEG4/ISO/AVC
Duration : 1h 13mn
Nominal bit rate : 4 575 Kbps
Width : 986 pixels
Height : 720 pixels
Display aspect ratio : 4:3
Frame rate mode : Constant
Frame rate : 23.976 fps
Color space : YUV
Chroma subsampling : 4:2:0
Bit depth : 8 bits
Scan type : Progressive
Bits/(Pixel*Frame) : 0.269
Title : Покровские ворота / Pokrovsky Gates (1982) - Release for HDClub
Writing library : x264 core 130 r2273 b3065e6
Encoding settings : cabac=1 / ref=9 / deblock=1:-3:-3 / analyse=0x3:0x113 / me=umh / subme=11 / psy=1 / psy_rd=1.10:0.00 / mixed_ref=1 / me_range=32 / chroma_me=1 / trellis=2 / 8x8dct=1 / cqm=0 / deadzone=21,11 / fast_pskip=0 / chroma_qp_offset=-2 / threads=12 / lookahead_threads=2 / sliced_threads=0 / nr=0 / decimate=0 / interlaced=0 / bluray_compat=0 / constrained_intra=0 / bframes=9 / b_pyramid=2 / b_adapt=2 / b_bias=0 / direct=3 / weightb=1 / open_gop=0 / weightp=2 / keyint=240 / keyint_min=23 / scenecut=40 / intra_refresh=0 / rc_lookahead=120 / rc=2pass / mbtree=0 / bitrate=4575 / ratetol=1.0 / qcomp=0.70 / qpmin=0 / qpmax=69 / qpstep=4 / cplxblur=20.0 / qblur=0.5 / vbv_maxrate=50000 / vbv_bufsize=62500 / nal_hrd=none / ip_ratio=1.40 / pb_ratio=1.30 / aq=2:0.80
Language : Russian
Default : Yes
Forced : No
Color primaries : BT.709
Transfer characteristics : BT.709
Matrix coefficients : BT.709
Audio #1
ID : 2
Format : DTS
Format/Info : Digital Theater Systems
Mode : 16
Format settings, Endianness : Big
Codec ID : A_DTS
Duration : 1h 13mn
Bit rate mode : Constant
Bit rate : 1 509 Kbps
Channel(s) : 6 channels
Channel positions : Front: L C R, Side: L R, LFE
Sampling rate : 48.0 KHz
Bit depth : 24 bits
Compression mode : Lossy
Stream size : 796 MiB (22%)
Title : Оригинал, DTS 48/24 1509 Kbps 5/1
Language : Russian
Default : Yes
Forced : No
Audio #2
ID : 3
Format : FLAC
Format/Info : Free Lossless Audio Codec
Codec ID : A_FLAC
Duration : 1h 13mn
Bit rate mode : Variable
Channel(s) : 1 channel
Sampling rate : 48.0 KHz
Bit depth : 24 bits
Title : Оригинал, FLAC 749 Kbps 1/0
Writing library : libFLAC 1.2.1 (UTC 2007-09-17)
Language : Russian
Default : No
Forced : No

Скриншоты

[Профиль] [ЛС]
Показать сообщения:    

Текущее время: Сегодня 04:47

Часовой пояс: GMT



Вы не можете начинать темы
Вы не можете отвечать на сообщения
Вы не можете редактировать свои сообщения
Вы не можете удалять свои сообщения
Вы не можете голосовать в опросах
Вы не можете прикреплять файлы к сообщениям
Вы не можете скачивать файлы