Покровские ворота (1982) BDRip [720p]

 
Автор Сообщение

sergej644 ®

Пол:

Стаж: 4 года 11 месяцев

Сообщений: 6039

Откуда: Soviet Union



Награды: Нет

Торрент-статистика

Создавать темы 20-Авг-2014 19:12

[Цитировать]

-Покровские ворота (1982) BDRip [720p]- Производство: СССР
Год выпуска: 1982
Жанр: Мюзикл, Драма, Мелодрама, Комедия-Режиссер: Михаил Козаков
Сценарий: Леонид Зорин
Актеры: Олег Меньшиков, Леонид Броневой, Инна Ульянова, Софья Пилявская,Анатолий Равикович, Виктор Борцов, Елена Коренева,Татьяна Догилева, Елизавета Никищихина, Игорь Дмитриев, Евгений Моргунов, Наталья Крачковская, Валентина Воилкова, Эммануил Геллер-Описание фильма: Если вы развелись, и ваша бывшая жена снова вышла замуж - это еще не значит, что вы свободны. Если вы пригласили девушку на свидание, и она пришла, это еще не значит, что она будет вашей. Но если при этом ваш сосед по коммуналке - студент Костик, то можете быть уверены - все будет хорошо.- -Производство: Мосфильм
Дата мировой премьеры: 11 февраля 1983
Релиз на DVD: 18 сентября 2008
Релиз на Blu-Ray: 16 апреля 2013-Перевод: Оригинал
Язык субтитров: Отсутствуют
Продолжительность: 02:19:43
Возраст 0+: Для любой зрительской аудитории-Качество видео: BDRip [720p]
Формат: MKV
Видео: MPEG-4 AVC/H.264, 7000 Kbps, 992 x 720
Аудио: Русский AC3 5.1, 640 Kbps, 48.0 KHz-

Blu-ray

MediaInfo

Общее
Полное имя : Покровские ворота (Серия 1).mkv
Формат : Matroska
Версия формата : Version 1
Размер файла : 3,52 Гбайт
Продолжительность : 1 ч. 5 м.
Общий поток : 7643 Кбит/сек
Дата кодирования : UTC 2013-12-18 03:00:53
Программа кодирования : mkvmerge v2.4.1 ('Use Me') built on Dec 5 2008 18:30:05
Библиотека кодирования : libebml v0.7.7 + libmatroska v0.8.1
Видео
Идентификатор : 1
Формат : AVC
Формат/Информация : Advanced Video Codec
Профиль формата : [url=mailto:High@L4.1]High@L4.1[/url]
Параметр CABAC формата : Да
Параметр ReFrames формата : 10 кадров
Идентификатор кодека : V_MPEG4/ISO/AVC
Продолжительность : 1 ч. 5 м.
Битрейт : 7000 Кбит/сек
Ширина : 992 пикселя
Высота : 720 пикселей
Соотношение сторон : 1,378
Режим частоты кадров : Постоянный
Частота кадров : 23,976 кадра/сек
Цветовое пространство : YUV
Субдискретизация насыщенности : 4:2:0
Битовая глубина : 8 бит
Тип развёртки : Прогрессивная
Бит/(Пиксели*Кадры) : 0.409
Размер потока : 3,16 Гбайт (90%)
Заголовок : Покровские ворота (1982)
Библиотека кодирования : x264 core 138 r2358 9e941d1
Настройки программы : cabac=1 / ref=10 / deblock=1:-3:-3 / analyse=0x3:0x133 / me=umh / subme=10 / psy=1 / psy_rd=1.00:0.10 / mixed_ref=1 / me_range=48 / chroma_me=1 / trellis=2 / 8x8dct=1 / cqm=0 / deadzone=21,11 / fast_pskip=0 / chroma_qp_offset=-3 / threads=6 / lookahead_threads=1 / sliced_threads=0 / nr=0 / decimate=1 / interlaced=0 / bluray_compat=0 / constrained_intra=0 / bframes=5 / b_pyramid=2 / b_adapt=2 / b_bias=0 / direct=3 / weightb=1 / open_gop=0 / weightp=2 / keyint=240 / keyint_min=22 / scenecut=40 / intra_refresh=0 / rc_lookahead=40 / rc=2pass / mbtree=1 / bitrate=7000 / ratetol=1.0 / qcomp=0.60 / qpmin=10 / qpmax=51 / qpstep=4 / cplxblur=20.0 / qblur=0.5 / ip_ratio=1.40 / aq=1:1.00
Язык : Russian
Аудио
Идентификатор : 2
Формат : AC-3
Формат/Информация : Audio Coding 3
Расширение режима : CM (complete main)
Параметр Endianness формата : Big
Идентификатор кодека : A_AC3
Продолжительность : 1 ч. 5 м.
Вид битрейта : Постоянный
Битрейт : 640 Кбит/сек
Каналы : 6 каналов
Расположение каналов : Front: L C R, Side: L R, LFE
Частота : 48,0 КГц
Битовая глубина : 16 бит
Метод сжатия : С потерями
Размер потока : 302 Мбайт (8%)
Заголовок : AC3 (Оригинал)
Язык : Russian--Общее
Полное имя : Покровские ворота (Серия 2).mkv
Формат : Matroska
Версия формата : Version 1
Размер файла : 3,94 Гбайт
Продолжительность : 1 ч. 13 м.
Общий поток : 7643 Кбит/сек
Дата кодирования : UTC 2013-12-18 03:06:07
Программа кодирования : mkvmerge v2.4.1 ('Use Me') built on Dec 5 2008 18:30:05
Библиотека кодирования : libebml v0.7.7 + libmatroska v0.8.1
Видео
Идентификатор : 1
Формат : AVC
Формат/Информация : Advanced Video Codec
Профиль формата : [url=mailto:High@L4.1]High@L4.1[/url]
Параметр CABAC формата : Да
Параметр ReFrames формата : 10 кадров
Идентификатор кодека : V_MPEG4/ISO/AVC
Продолжительность : 1 ч. 13 м.
Битрейт : 7000 Кбит/сек
Ширина : 992 пикселя
Высота : 720 пикселей
Соотношение сторон : 1,378
Режим частоты кадров : Постоянный
Частота кадров : 23,976 кадра/сек
Цветовое пространство : YUV
Субдискретизация насыщенности : 4:2:0
Битовая глубина : 8 бит
Тип развёртки : Прогрессивная
Бит/(Пиксели*Кадры) : 0.409
Размер потока : 3,53 Гбайт (90%)
Заголовок : Покровские ворота (1982)
Библиотека кодирования : x264 core 138 r2358 9e941d1
Настройки программы : cabac=1 / ref=10 / deblock=1:-3:-3 / analyse=0x3:0x133 / me=umh / subme=10 / psy=1 / psy_rd=1.00:0.10 / mixed_ref=1 / me_range=48 / chroma_me=1 / trellis=2 / 8x8dct=1 / cqm=0 / deadzone=21,11 / fast_pskip=0 / chroma_qp_offset=-3 / threads=6 / lookahead_threads=1 / sliced_threads=0 / nr=0 / decimate=1 / interlaced=0 / bluray_compat=0 / constrained_intra=0 / bframes=5 / b_pyramid=2 / b_adapt=2 / b_bias=0 / direct=3 / weightb=1 / open_gop=0 / weightp=2 / keyint=240 / keyint_min=22 / scenecut=40 / intra_refresh=0 / rc_lookahead=40 / rc=2pass / mbtree=1 / bitrate=7000 / ratetol=1.0 / qcomp=0.60 / qpmin=10 / qpmax=51 / qpstep=4 / cplxblur=20.0 / qblur=0.5 / ip_ratio=1.40 / aq=1:1.00
Язык : Russian
Аудио
Идентификатор : 2
Формат : AC-3
Формат/Информация : Audio Coding 3
Расширение режима : CM (complete main)
Параметр Endianness формата : Big
Идентификатор кодека : A_AC3
Продолжительность : 1 ч. 13 м.
Вид битрейта : Постоянный
Битрейт : 640 Кбит/сек
Каналы : 6 каналов
Расположение каналов : Front: L C R, Side: L R, LFE
Частота : 48,0 КГц
Битовая глубина : 16 бит
Метод сжатия : С потерями
Размер потока : 338 Мбайт (8%)
Заголовок : AC3 (Оригинал)
Язык : Russian
-Скриншоты:
[Профиль] [ЛС]
Показать сообщения:    

Текущее время: Сегодня 16:32

Часовой пояс: GMT



Вы не можете начинать темы
Вы не можете отвечать на сообщения
Вы не можете редактировать свои сообщения
Вы не можете удалять свои сообщения
Вы не можете голосовать в опросах
Вы не можете прикреплять файлы к сообщениям
Вы не можете скачивать файлы