Покорение Семи морей / Conquest of the Seven Seas [серии 1-2 из 2] (Хольгер Пройсe / Holger Preusse, Ханес Шулер / Hannes Schuler) [2014 г., Документальный, игровой, познавательный, история, SATRip]

 
Автор Сообщение

skorpionN ®

Пол:

Стаж: 1 год 8 месяцев

Сообщений: 592



Награды: 4 (Подробнее)

Mega Seeder 1 (Количество: 1) Top Releaser 2 (Количество: 1) Mega Seeder 2 (Количество: 1)
Торрент-статистика

Создавать темы 05-Окт-2016 21:40

[Цитировать]

Покорение Семи морей / Conquest of the Seven Seas [серии 1-2 из 2]
Год выпуска: 2014
Страна: Германия, Fernsehburo
Жанр: Документальный, игровой, познавательный, история
Продолжительность: 00:51:42
Перевод: Профессиональный (одноголосый), СВ Дубль по заказу ГТРК Культура
Режиссер: Хольгер Пройсe / Holger Preusse, Ханес Шулер / Hannes Schuler
Описание: Двое мужчин имели общую цель: плыть по всему миру. Их приключения отражают жестокую политику Испании, Португалии и Великобритании и борьбу за власть в Новом Свете. Фернан Магеллан приехал из Португалии, плавал под испанским флагом, а сэр Фрэнсис Дрейк являлся английским корсаром. Это их успехи и неудачи в морях и океанах решили вопрос о новом мировом порядке. В двух сериях полнометражных документальных фильмов современные исследователи пытаются понять, каковы были реальные цели двух экспедиций этих моряков.
Список серий:
01. Фернан Магеллан / Ferdinand Magellan
В 1519 году пять кораблей под командованием Фернана Магеллана (1480-1521) в строгой секретности отправились на поиски западного морского пути к Островам пряностей. На фоне соперничества двух могущественных королевств - Испании и Португалии - за господство на водах португалец возглавил испанскую флотилию, и плавание для него оказалось нелегким. Через два года в Испанию вернулся лишь один корабль. Но ценой собственной жизни Магеллан сделал важнейшее открытие, доказав шарообразность Земли и существование Мирового океана...
02. Сэр Фрэнсис Дрейк / Sir Frencis Drake
Во второй половине XVI века Англия боролась за звание мировой державы. Королеве Елизавете необходимо было найти путь к сокровищам Нового Света, не вступая в открытую войну с Испанией. Задача приумножить королевские владения и пополнить казну была возложена на Фрэнсиса Дрейка (ок. 1540-1596). В итоге он стал первым англичанином, совершившим кругосветное плавание. Однако возвращаясь с победой в плимутский порт, Дрейк еще не знал, что ждет его на родине - богатство и слава или расплата за преступления...
Качество: SATRip
Формат: AVI
Видео кодек: XviD
Аудио кодек: AC3
Видео: 704x400 25.00 fps 1950 kbps
Аудио: AC3 2ch, 48kHz, 192 kbps

Скриншоты


MediaInfo:

Format : AVI
Format/Info : Audio Video Interleave
File size : 794 MiB
Duration : 51 min
Overall bit rate : 2 148 kb/s
Writing application : TMPGEnc Video Mastering Works 5 Version. 5.0.6.38
Writing library : TMPGEnc Video Mastering Works 5 Version. 5.0.6.38
Video
ID : 0
Format : MPEG-4 Visual
Format profile : Advanced Simple@L5
Format settings, BVOP : 2
Format settings, QPel : No
Format settings, GMC : No warppoints
Format settings, Matrix : Default (H.263)
Muxing mode : Packed bitstream
Codec ID : XVID
Codec ID/Hint : XviD
Duration : 51 min
Bit rate : 1 948 kb/s
Width : 720 pixels
Height : 400 pixels
Display aspect ratio : 16:9
Frame rate : 25.000 FPS
Color space : YUV
Chroma subsampling : 4:2:0
Bit depth : 8 bits
Scan type : Progressive
Compression mode : Lossy
Bits/(Pixel*Frame) : 0.271
Stream size : 720 MiB (91%)
Writing library : XviD 73
Audio
ID : 1
Format : AC-3
Format/Info : Audio Coding 3
Mode extension : CM (complete main)
Format settings, Endianness : Big
Codec ID : 2000
Duration : 51 min
Bit rate mode : Constant
Bit rate : 192 kb/s
Channel(s) : 2 channels
Channel positions : Front: L R
Sampling rate : 48.0 kHz
Frame rate : 31.250 FPS (1536 spf)
Compression mode : Lossy
Stream size : 71.0 MiB (9%)
Alignment : Aligned on interleaves
Interleave, duration : 240 ms (6.00 video frames)
Interleave, preload duration : 224 ms

Внимание:

Раздача ведётся путём добавления новых серий; при каждом добавлении создаётся новый торрент. Чтобы начать докачку новой серии, пользователям необходимо сделать следующее:
- Остановить скачивание.
- Удалить старый торрент у себя из клиента (старые серии удалять не надо).
- Скачать новый торрент и запустить его у себя в клиенте вместо старого, при этом указать клиенту путь в старую папку куда и должно происходить скачивание новых серий.
Добавлено:
02. Сэр Фрэнсис Дрейк / Sir Frencis Drake


Последний раз редактировалось: skorpionN (2016-10-07 13:09), всего редактировалось 4 раз(а)
[Профиль] [ЛС]
Кто просматривает тему:

Форум Тема Автор Размер
Фильмы (HD Rips | 720p, 1080p) Девочка, покорившая время / Toki o kakeru shôjo / Time Traveller (2010) BDRip 720p от KinoRay | L1 sergej644 4 GB
Зарубежные Джек – покоритель великанов в 3Д / Jack the Giant Slayer 3D (Брайан Сингер / Bryan Singer) [2013, Фэнтези, Приключения, BDrip-AVC] Half OverUnder / Вертикальная анаморфная стереопара TorrentFilm 9.64 GB
Зарубежные Джек – покоритель великанов в 3Д / Jack the Giant Slayer 3D (Брайан Сингер / Bryan Singer) [2013, фэнтези, приключения, BDRip-AVC] Half SideBySide / Горизонтальная анаморфная стереопара TorrentFilm 9.53 GB
Metal Кипелов - Непокорённый (макси сингл) (2015) MP3 достали все 34 MB
Азиатские фильмы Лёгкая улыбка покоряет мир / Любовь из онлайна в оффлайн / Love O2O (2016) HDTVRip-AVC от Batafurai Team и SOUND-GROUP | L2 Russian Mafia 1.47 GB
BBC Покорение неба 3D с Дэвидом Аттенборо / David Attenborough's Conquest of the Skies 3D (2014) BDRip 1080p от Ash61 | 3D-Video | halfOU | P1 Zithylord 18.91 GB
R.G.TorrentFilm Video Покорение неба с Дэвидом Аттенборо / David Attenborough's Conquest of the Skies (Дэвид Ли / David Lee) [2014, Документальный, флора, фауна, HDRip] VO (студия «Омикрон») Один 777 1.46 GB
Индийское кино Покоритель сердец / Hunterrr (2015) WEB-DLRip | P достали все 1.46 GB
Показать сообщения:    

Текущее время: Сегодня 22:42

Часовой пояс: GMT



Вы не можете начинать темы
Вы не можете отвечать на сообщения
Вы не можете редактировать свои сообщения
Вы не можете удалять свои сообщения
Вы не можете голосовать в опросах
Вы не можете прикреплять файлы к сообщениям
Вы не можете скачивать файлы