Поклонник / The Boy Next Door (2015) DVD9 | Custom

 
Автор Сообщение

BOSS ®

Пол:

Стаж: 2 года 1 месяц

Сообщений: 3732

Откуда: ODESSA



Награды: 20 (Подробнее)

Top Keeper 2 (Количество: 1) Top Keeper 4 (Количество: 1) Mega Seeder 4 (Количество: 1)
Торрент-статистика

Создавать темы 27-Дек-2015 13:07

[Цитировать]

«A moment she couldn't resist, an obsession he can't control»

Год выпуска: 2015
Производство: США / Universal Pictures, Smart Entertainment, Nuyorican Productions, Blumhouse Productions
Жанр: Триллер, детектив
Режиссер: Роб Коэн
Продюсеры: Джейсон Блум, Элейн Голдсмит-Томас, Джон Джейкобс
Актеры: Дженнифер Лопез, Райан Гузман, Йен Нельсон, Джон Корбетт, Кристин Ченоуэт, Лекси Аткинс, Хилл Харпер, Джек Уоллес, Адам Хикс, Франсуа Чау
Описание фильма:
Фильм рассказывает об учительнице литературы Клэр Петерсон. Клэр знает о том, что муж изменяет ей, но тянет с разводом.
Однажды, в дом по соседству въезжает харизматичный 19-летний красавчик Ной, который начинает оказывать Клэр повышенное внимание. Поддавшись слабости, Клэр проводит с ним ночь. Но она и не подозревала, что в скором времени влечение Ноя к ней перерастет в опасную одержимость…
Перевод: Дублированный
Субтитры: Английские, русские-Дата мировой премьеры: 22 января 2015
Дата премьеры в России: 26 марта 2015, «UPI»
Дата выхода DVD релиза: 28 мая 2015, «Двадцатый Век Фокс СНГ»
-Продолжительность: 01:30:36
Качество видео: DVD9
Видео: MPEG-2, 720x480@853x480 (NTSC 16:9), ~7000 Кбит/сек
Аудио 1: AC3 5.1, 448 Кбит/сек [Английский - оригинал]
Аудио 2: AC3 5.1, 448 Кбит/сек [Русский - дублированный]
Аудио 3: AC3 2.0, 192 Кбит/сек [Английский - описательный]
Аудио 4: AC3 2.0, 192 Кбит/сек [Английский - комментарии]
Доп. материалы: Рассказ о Съёмках Фильма "The Boy Next Door", Удалённые Сцены

DVDInfo:

Title: The Boy Next Door (2015) DVD9 NTSC
Size: 6.31 Gb ( 6 613 936,00 KBytes ) - DVD-9
Enabled regions: 1, 2, 3, 4, 5, 6, 7, 8
VTS_01 :
Play Length: 00:00:00
Video: NTSC 4:3 (720x480) VBR
Audio:
English (Dolby AC3, 2 ch)
English (Dolby AC3, 2 ch)
English (Dolby AC3, 2 ch)
English (Dolby AC3, 2 ch)
English (Dolby AC3, 2 ch)
English (Dolby AC3, 2 ch)
English (Dolby AC3, 2 ch)
English (Dolby AC3, 2 ch)
Subtitles:
English
English
English
English
English
English
English
English
English
English
English
English
English
English
English
English
VTS_02 :
Play Length: 00:04:33+00:01:02
Video: NTSC 16:9 (720x480) VBR, Auto Letterboxed
Audio:
English (Dolby AC3, 2 ch)
VTS_03 :
Play Length: 00:00:25
Video: NTSC 16:9 (720x480) VBR, Auto Letterboxed
Audio:
English (Dolby AC3, 6 ch)
VTS_04 :
Play Length: 00:00:14
Video: NTSC 16:9 (720x480) VBR, Auto Letterboxed
Audio:
English (Dolby AC3, 6 ch)
VTS_05 :
Play Length: 00:00:00
Video: NTSC 16:9 (720x480) VBR, Auto Letterboxed
VTS_06 :
Play Length: 00:00:00
Video: NTSC 16:9 (720x480) VBR, Auto Letterboxed
VTS_07 :
Play Length: 01:30:36
Video: NTSC 16:9 (720x480) VBR, Auto Letterboxed
Audio:
English (Dolby AC3, 6 ch)
Russian (Dolby AC3, 6 ch)
English (Dolby AC3, 2 ch)
English (Dolby AC3, 2 ch)
Subtitles:
English
Russian
Russian
VTS_08 :
Play Length: 00:10:00+00:02:07+00:03:08+00:01:59+00:01:52+{00:00:59}+00:09:18
Video: NTSC 16:9 (720x480) VBR, Auto Letterboxed
Audio:
English (Dolby AC3, 2 ch)
Subtitles:
English
Russian
VTS_09 :
Play Length: 00:00:32
Video: NTSC 16:9 (720x480) VBR, Auto Letterboxed
Audio:
English (Dolby AC3, 6 ch)
* Menus Information *
VIDEO_TS Menu
Video:
NTSC 16:9 (720x480) VBR
Auto Pan&Scan
English Language Unit :
Title Menu
VTS_01 Menu
Video:
NTSC 4:3 (720x480) VBR
Auto Pan&Scan, Auto Letterboxed
English Language Unit :
Root Menu
VTS_02 Menu
Video:
NTSC 4:3 (720x480) VBR
Auto Pan&Scan, Auto Letterboxed
English Language Unit :
Root Menu
VTS_03 Menu
Video:
NTSC 4:3 (720x480) VBR
Auto Pan&Scan, Auto Letterboxed
English Language Unit :
Root Menu
VTS_04 Menu
Video:
NTSC 4:3 (720x480) VBR
Auto Pan&Scan, Auto Letterboxed
English Language Unit :
Root Menu
VTS_05 Menu
Video:
NTSC 4:3 (720x480) VBR
Auto Pan&Scan, Auto Letterboxed
English Language Unit :
Root Menu
VTS_06 Menu
Video:
NTSC 4:3 (720x480) VBR
Auto Pan&Scan, Auto Letterboxed
English Language Unit :
Root Menu
VTS_07 Menu
Video:
NTSC 16:9 (720x480) VBR
Auto Letterboxed
Audio:
Not specified (Dolby AC3, 2 ch)
English Language Unit :
Root Menu
Subpicture Menu
Audio Menu
Angle menu
Chapter (PTT) Menu
VTS_08 Menu
Video:
NTSC 4:3 (720x480) VBR
Auto Pan&Scan, Auto Letterboxed
English Language Unit :
Root Menu
VTS_09 Menu
Video:
NTSC 4:3 (720x480) VBR
Auto Pan&Scan, Auto Letterboxed
English Language Unit :
Root Menu

MediaInfo:

Общее
Полное имя : F:ВидеоThe Boy Next Door (2015) DVD9 NTSCVIDEO_TSVTS_07_1.VOB
Формат : MPEG-PS
Размер файла : 1024 Мбайт
Продолжительность : 16 м.
Режим общего битрейта : Переменный
Общий поток : 8459 Кбит/сек
Видео
Идентификатор : 224 (0xE0)
Формат : MPEG Video
Версия формата : Version 2
Профиль формата : Main@Main
Параметр BVOP формата : Да
Параметр матрицы формата : Выборочная
Параметр GOP формата : Variable
Продолжительность : 16 м.
Вид битрейта : Переменный
Битрейт : 7011 Кбит/сек
Максимальный битрейт : 9800 Кбит/сек
Ширина : 720 пикселей
Высота : 480 пикселей
Соотношение сторон : 16:9
Частота кадров : 23,976 кадра/сек
Стандарт вещания : NTSC
Цветовое пространство : YUV
Субдискретизация насыщенности : 4:2:0
Битовая глубина : 8 бит
Тип развёртки : Прогрессивная
Порядок развёртки : 2:3 Pulldown
Метод сжатия : С потерями
Бит/(Пиксели*Кадры) : 0.846
Временной код первого кадра : 00:59:59;00
Оригинал временного кода : Group of pictures header
Размер потока : 849 Мбайт (83%)
Аудио #1
Идентификатор : 189 (0xBD)-128 (0x80)
Формат : AC-3
Формат/Информация : Audio Coding 3
Расширение режима : CM (complete main)
Параметр Endianness формата : Big
Режим смешивания : DVD-Video
Продолжительность : 16 м.
Вид битрейта : Постоянный
Битрейт : 448 Кбит/сек
Каналы : 6 каналов
Расположение каналов : Front: L C R, Side: L R, LFE
Частота : 48,0 КГц
Битовая глубина : 16 бит
Метод сжатия : С потерями
Размер потока : 54,2 Мбайт (5%)
Аудио #2
Идентификатор : 189 (0xBD)-129 (0x81)
Формат : AC-3
Формат/Информация : Audio Coding 3
Расширение режима : CM (complete main)
Параметр Endianness формата : Big
Режим смешивания : DVD-Video
Продолжительность : 16 м.
Вид битрейта : Постоянный
Битрейт : 448 Кбит/сек
Каналы : 6 каналов
Расположение каналов : Front: L C R, Side: L R, LFE
Частота : 48,0 КГц
Битовая глубина : 16 бит
Метод сжатия : С потерями
Размер потока : 54,2 Мбайт (5%)
Аудио #3
Идентификатор : 189 (0xBD)-130 (0x82)
Формат : AC-3
Формат/Информация : Audio Coding 3
Профиль формата : Dolby Digital
Расширение режима : CM (complete main)
Параметр Endianness формата : Big
Режим смешивания : DVD-Video
Продолжительность : 16 м.
Вид битрейта : Постоянный
Битрейт : 192 Кбит/сек
Каналы : 2 канала
Расположение каналов : Front: L R
Частота : 48,0 КГц
Битовая глубина : 16 бит
Метод сжатия : С потерями
Размер потока : 23,2 Мбайт (2%)
Аудио #4
Идентификатор : 189 (0xBD)-131 (0x83)
Формат : AC-3
Формат/Информация : Audio Coding 3
Профиль формата : Dolby Digital
Расширение режима : CM (complete main)
Параметр Endianness формата : Big
Режим смешивания : DVD-Video
Продолжительность : 16 м.
Вид битрейта : Постоянный
Битрейт : 192 Кбит/сек
Каналы : 2 канала
Расположение каналов : Front: L R
Частота : 48,0 КГц
Битовая глубина : 16 бит
Метод сжатия : С потерями
Размер потока : 23,2 Мбайт (2%)
Текст #1
Идентификатор : 189 (0xBD)-32 (0x20)
Формат : RLE
Формат/Информация : Run-length encoding
Режим смешивания : DVD-Video
Текст #2
Идентификатор : 189 (0xBD)-33 (0x21)
Формат : RLE
Формат/Информация : Run-length encoding
Режим смешивания : DVD-Video
Меню

Доп. информация:

Исходником послужил лицензионный DVD9 из-за рубежа. Испанскую звуковую дорожку заменил на русскую вместе с субтитрами. Французскую дорогу удалил.
Доп. материалы переведены русскими субтитрами.
Предупреждающие надписи скрыл.
Использовались программы: MKVExtractGUI2, DVD ReMake Pro, PgcDemux, Adobe PhotoShop, MuxMan, Subtitle Workshop, MaestroSBT, DVDSubEdit.

Скриншоты меню:

Скриншоты:
[Профиль] [ЛС]
Показать сообщения:    

Текущее время: Сегодня 06:06

Часовой пояс: GMT



Вы не можете начинать темы
Вы не можете отвечать на сообщения
Вы не можете редактировать свои сообщения
Вы не можете удалять свои сообщения
Вы не можете голосовать в опросах
Вы не можете прикреплять файлы к сообщениям
Вы не можете скачивать файлы