Поклонник / The Boy Next Door (Роб Коэн / Rob Cohen) [2015, США, триллер, BDRip] Dub

 
Автор Сообщение

TorrentFilm ®

Пол:

Стаж: 2 года

Сообщений: 7741



Награды: Нет

Торрент-статистика

Создавать темы 25-Май-2015 00:04

[Цитировать]

Поклонник / The Boy Next Door

«A moment she couldn't resist, an obsession he can't control»
-Страна: США
Студия: Universal Pictures, Blumhouse Productions
Жанр: триллер
Год выпуска: 2015
Продолжительность: 01:30:41
Перевод: Профессиональный (дублированный) - | Лицензия - BD CEE |
Cубтитры: нет
Оригинальная аудиодорожка: нет-Режиссер: Роб Коэн / Rob Cohen-В ролях: Дженнифер Лопез, Райан Гузман, Йен Нельсон, Джон Корбетт, Кристин Ченоуэт, Лекси Аткинс, Хилл Харпер, Джек Уоллес, Адам Хикс, Франсуа Чау-Описание: Фильм рассказывает об учительнице литературы Клэр Петерсон. Клэр знает о том, что муж изменяет ей, но тянет с разводом.
Однажды, в дом по соседству въезжает харизматичный 19-летний красавчик Ной, который начинает оказывать Клэр повышенное внимание. Поддавшись слабости, Клэр проводит с ним ночь. Но она и не подозревала, что в скором времени влечение Ноя к ней перерастет в опасную одержимость…
- -Качество видео: BDRip | Blu-Ray CEE - HDClub |
Формат видео: AVI
Видео: 720x304, 23.976 fps, XviD build 73 ~1854 kbps avg, 0.363 bit/pixel
Аудио: 48 kHz, AC3 Dolby Digital, 3/2 (L,C,R,l,r) + LFE ch, ~448 kbps
-

Дополнительно о фильме:

Производство, студия дубляжа, прокат:

MediaInfo

General
Complete name : THE_BOY_NEXT_DOOR_BDRip.By_Flash.avi
Format : AVI
Format/Info : Audio Video Interleave
File size : 1.46 GiB
Duration : 1h 30mn
Overall bit rate : 2 311 Kbps
Writing application : VirtualDubMod 1.5.10.3 | www.virtualdub-fr.org || (build 2550/release)
Writing library : VirtualDubMod build 2550/release
Video
ID : 0
Format : MPEG-4 Visual
Format profile : Advanced Simple@L5
Format settings, BVOP : 1
Format settings, QPel : No
Format settings, GMC : No warppoints
Format settings, Matrix : Custom
Codec ID : XVID
Codec ID/Hint : XviD
Duration : 1h 30mn
Bit rate : 1 854 Kbps
Width : 720 pixels
Height : 304 pixels
Display aspect ratio : 2.35:1
Frame rate : 23.976 fps
Color space : YUV
Chroma subsampling : 4:2:0
Bit depth : 8 bits
Scan type : Progressive
Compression mode : Lossy
Bits/(Pixel*Frame) : 0.353
Stream size : 1.17 GiB (80%)
Writing library : XviD 73
Audio
ID : 1
Format : AC-3
Format/Info : Audio Coding 3
Mode extension : CM (complete main)
Format settings, Endianness : Big
Codec ID : 2000
Duration : 1h 30mn
Bit rate mode : Constant
Bit rate : 448 Kbps
Channel(s) : 6 channels
Channel positions : Front: L C R, Side: L R, LFE
Sampling rate : 48.0 KHz
Bit depth : 16 bits
Compression mode : Lossy
Stream size : 290 MiB (19%)
Alignment : Split accross interleaves
Interleave, duration : 42 ms (1.00 video frame)
Interleave, preload duration : 500 ms

Скриншот c названием фильма

Скриншоты

[Профиль] [ЛС]
Показать сообщения:    

Текущее время: Сегодня 16:54

Часовой пояс: GMT



Вы не можете начинать темы
Вы не можете отвечать на сообщения
Вы не можете редактировать свои сообщения
Вы не можете удалять свои сообщения
Вы не можете голосовать в опросах
Вы не можете прикреплять файлы к сообщениям
Вы не можете скачивать файлы